<?xml version="1.0" standalone="no"?>
<!DOCTYPE svg PUBLIC "-//W3C//DTD SVG 1.1//EN" "http://www.w3.org/Graphics/SVG/1.1/DTD/svg11.dtd" >
<svg xmlns="http://www.w3.org/2000/svg">
<metadata>Generated by IcoMoon</metadata>
<defs>
<font id="icomoon" horiz-adv-x="1024">
<font-face units-per-em="1024" ascent="960" descent="-64" />
<missing-glyph horiz-adv-x="1024" />
<glyph unicode="&#x20;" horiz-adv-x="512" d="" />
<glyph unicode="&#xe900;" glyph-name="work-finish" d="M988.429 149.346c0 98.223-79.578 177.779-177.724 177.779-98.253 0-177.83-79.663-177.83-177.779s79.578-177.673 177.83-177.775c98.146 0 177.724 79.659 177.724 177.775zM811.213 167.654l61.679 61.675 18.854-18.854-61.679-61.679 61.692-61.687-18.859-18.859-61.687 61.692-61.687-61.692-18.859 18.859 61.692 61.687-61.679 61.679 18.854 18.854 61.679-61.675zM128 608v-448h586.854l10.479 138.667h170.667v-138.667 448h-768zM92 672h831.499c20.16 0 36.501-16.342 36.501-36.5v-502.999c0-20.16-16.341-36.501-36.501-36.501l-25.873 138.667h-172.292l-10.479-138.667h-614.354c-20.158 0-36.5 16.341-36.5 36.501v511.499c0 15.464 12.536 28 28 28zM934.989 480.751l-436.634-97.613-409.772 97.715 14.845 62.253 395.392-94.287 422.204 94.389 13.965-62.458zM388.5 736c-2.485 0-4.5-2.015-4.5-4.5v-59.5h-64v59.5c0 37.832 30.668 68.5 68.5 68.5h246.999c37.833 0 68.501-30.668 68.501-68.5v-59.5h-64v59.5c0 2.485-2.014 4.5-4.501 4.5h-246.999z" />
<glyph unicode="&#xe901;" glyph-name="fill-sucess" d="M512.154-64c-282.968 0.304-512.154 229.424-512.154 512 0 282.578 229.185 512 512.154 512 282.662 0 511.846-229.117 511.846-512 0-282.576-229.185-512-511.846-512zM714.728 671.933l-292.328-292.33-113.13 113.128-72.408-72.407 185.538-185.535 364.739 364.735-72.41 72.409z" />
<glyph unicode="&#xe902;" glyph-name="calendar" d="M832 810.667h-128v64h-64v-64h-256v64h-64v-64h-128c-35.2 0-64-28.8-64-64v-640c0-35.2 28.8-64 64-64h640c35.2 0 64 28.8 64 64v640c0 35.2-28.8 64-64 64zM832 106.667h-640v448h640v-448zM832 618.667h-640v128h128v-64h64v64h256v-64h64v64h128v-128z" />
<glyph unicode="&#xe903;" glyph-name="location" d="M514.931 685.375c-24.239 0-47.936-7.188-68.087-20.655-20.156-13.466-35.864-32.607-45.14-55.002s-11.703-47.036-6.974-70.809c4.729-23.774 16.401-45.611 33.541-62.75s38.976-28.813 62.75-33.54c23.774-4.732 48.418-2.304 70.81 6.972 22.396 9.276 41.536 24.986 55.002 45.141 13.466 20.151 20.655 43.847 20.655 68.086-0.038 32.493-12.962 63.644-35.938 86.619s-54.127 35.9-86.618 35.937zM514.931 501.542c-12.122 0-23.966 3.593-34.044 10.325s-17.933 16.303-22.571 27.501c-4.638 11.197-5.85 23.518-3.486 35.405s8.201 22.806 16.768 31.375c8.572 8.57 19.49 14.406 31.377 16.771s24.209 1.151 35.405-3.487c11.196-4.638 20.766-12.492 27.503-22.569 6.733-10.077 10.325-21.925 10.325-34.045-0.017-16.246-6.481-31.82-17.967-43.31-11.49-11.486-27.063-17.95-43.311-17.967zM747.482 798.481c-58.231 58.214-135.957 92.794-218.18 97.069-82.227 4.274-163.121-22.060-227.072-73.922s-106.423-125.574-119.222-206.909c-12.799-81.335 4.985-164.527 49.918-233.523l231.531-355.439c5.15-7.906 12.194-14.404 20.493-18.906 8.299-4.497 17.591-6.852 27.029-6.852s18.731 2.355 27.029 6.852c8.299 4.501 15.343 10.999 20.493 18.906l231.539 355.439c41.694 64.004 60.117 140.39 52.186 216.364-7.927 75.972-41.732 146.909-95.744 200.921zM739.695 414.643l-227.716-349.572-227.718 349.572c-69.704 107.004-54.754 250.205 35.547 340.509 25.236 25.236 55.196 45.256 88.169 58.914 32.975 13.658 68.311 20.688 104.002 20.688s71.031-7.030 104.004-20.688c32.973-13.658 62.933-33.677 88.166-58.914 90.304-90.305 105.25-233.506 35.546-340.509z" />
<glyph unicode="&#xe904;" glyph-name="bell" d="M835.004 298.543c-18.197 17.638-26.227 26.291-26.227 46.502v237.361c-0.064 57.065-17.609 112.825-50.415 160.207-32.802 47.382-79.39 84.25-133.841 105.926l-0.132-0.305v0.288c-33.216 16.184-69.705 25.080-106.867 26.056-2.15 0-4.301 0.090-6.379 0.090s-4.233 0-6.383-0.090c-36.838-0.899-73.105-11.005-105.271-26.092v0.144c-54.484-21.668-101.097-58.545-133.917-105.946s-50.368-103.188-50.414-160.277v-237.361c0.195-6.485-0.999-12.941-3.506-18.953-3.951-8.994-11.371-16.525-22.742-27.55-7.095-6.652-13.814-13.666-20.127-21.022-1.336-1.617-2.671-3.273-3.97-4.996-1.299-1.728-2.597-3.473-3.84-5.308-11.223-16.397-20.015-37.419-20.015-66.027v-35.964h259.699v-35.964c-0.009-12.642 2.276-25.19 6.752-37.065 1.236-3.307 2.646-6.532 4.229-9.673 5.454-10.953 12.772-20.932 21.649-29.525 1.259-1.225 2.56-2.411 3.874-3.597 2.637-2.398 5.38-4.599 8.239-6.601 8.636-6.289 18.18-11.311 28.322-14.908 5.158-1.835 10.445-3.298 15.825-4.369 3.712-0.717 7.309-1.259 11.132-1.634 3.819-0.38 7.531-0.559 11.371-0.559 29.508 0.034 57.796 11.409 78.66 31.637 20.868 20.228 32.606 47.65 32.64 76.254v36.002h259.699v35.964c-0.094 50.85-27.81 77.734-48.047 97.353zM549.056 129.263c0-9.54-3.908-18.688-10.867-25.434-6.955-6.741-16.393-10.53-26.231-10.53s-19.277 3.789-26.231 10.53c-6.959 6.746-10.867 15.893-10.867 25.434v35.964h74.197v-35.964zM230.851 237.154c2.931 3.11 6.307 6.417 10.128 10.121l0.408 0.414c7.101 6.652 13.826 13.67 20.145 21.022 1.354 1.617 2.671 3.273 3.988 5.001 1.317 1.724 2.578 3.469 3.84 5.303 11.279 16.401 20.052 37.419 20.052 66.031v237.361c-0.073 42.789 13.009 84.628 37.573 120.179s59.5 63.2 100.346 79.421v0c21.261 9.402 43.998 15.292 67.264 17.425l9.015 0.557c2.761 0.108 5.564 0.198 8.346 0.198 2.799 0 5.564 0 8.346-0.198 2.099 0 9.015-0.557 9.015-0.557 23.181-1.968 45.833-7.795 66.965-17.227v0c40.947-16.177 75.981-43.834 100.612-79.429 24.636-35.594 37.747-77.506 37.662-120.369v-237.361c0-50.854 27.712-77.739 47.949-97.357 4.006-3.883 7.514-7.317 10.556-10.534h-562.211z" />
<glyph unicode="&#xe905;" glyph-name="align-left" d="M128 576h597.333v-85.333h-597.333v85.333zM128 746.667h768v-85.333h-768v85.333zM128 405.333h768v-85.333h-768v85.333zM128 234.667h597.333v-85.333h-597.333v85.333z" />
<glyph unicode="&#xe906;" glyph-name="cloud-security" d="M640 320v96c0 33.946-13.487 66.505-37.491 90.509s-56.563 37.491-90.509 37.491c-33.946 0-66.505-13.487-90.51-37.491s-37.49-56.563-37.49-90.509v-96c-16.967-0.021-33.233-6.771-45.231-18.769s-18.747-28.262-18.769-45.231v-192c0.021-16.969 6.771-33.233 18.769-45.231s28.264-18.748 45.231-18.769h256c16.969 0.021 33.233 6.771 45.231 18.769s18.748 28.262 18.769 45.231v192c-0.021 16.969-6.771 33.233-18.769 45.231s-28.262 18.748-45.231 18.769v0zM448 416c0 16.973 6.741 33.254 18.743 45.257s28.284 18.743 45.257 18.743c16.973 0 33.254-6.741 45.257-18.743s18.743-28.284 18.743-45.257v-96h-128v96zM384 64v192h256l0.038-192h-256.038zM826.522 636.315c-12.113 62.863-42.79 120.652-88.077 165.906-45.282 45.254-103.091 75.895-165.965 87.969-41.297 7.977-83.759 7.738-124.966-0.706-41.202-8.444-80.338-24.925-115.169-48.503s-64.673-53.789-87.82-88.907c-23.148-35.118-39.147-74.454-47.083-115.759-58.983-10.641-111.852-42.961-148.214-90.607-36.362-47.643-53.586-107.168-48.287-166.867 5.299-59.703 32.738-115.26 76.923-155.755 44.186-40.499 101.92-63.002 161.856-63.087h16.282v64h-16.15c-43.961 0.055-86.311 16.555-118.723 46.251-32.412 29.7-52.541 70.451-56.43 114.24-3.888 43.785 8.745 87.445 35.417 122.389 26.672 34.947 65.452 58.649 108.716 66.449l43.162 7.811 8.291 43.062c11.291 58.474 42.589 111.192 88.519 149.102s103.627 58.644 163.181 58.644c59.554 0 117.248-20.735 163.179-58.644s77.227-90.628 88.521-149.102l8.286-43.062 43.166-7.811c43.251-7.798 82.027-31.49 108.698-66.423 26.671-34.931 39.313-78.575 35.443-122.351-3.874-43.78-23.979-84.527-56.367-114.236-32.384-29.709-74.714-46.229-118.665-46.319h-16.243v-64h16.243c59.938 0.085 117.67 22.588 161.856 63.087 44.186 40.495 71.625 96.051 76.924 155.755 5.299 59.699-11.925 119.223-48.286 166.867s-89.233 79.965-148.215 90.607v0z" />
<glyph unicode="&#xe907;" glyph-name="info-dashed" d="M555.823 874.667v-85.333c188.625-23.040 322.249-193.28 299.046-380.587-9.485-75.477-44.041-145.66-98.202-199.441-54.161-53.786-124.838-88.102-200.845-97.519v-85.333c236.318 25.6 406.037 236.373 380.254 470.613-22.34 198.827-180.028 356.267-380.254 377.6zM469.888 874.667c-84.216-7.68-163.705-40.533-229.014-93.867l61.443-65.707c48.123 38.4 106.128 63.147 167.572 71.68v87.893zM180.29 718.080c-53.894-64.638-86.978-143.87-94.957-227.413h85.934c8.163 60.587 32.225 118.187 70.466 166.4l-61.443 61.013zM85.763 405.333c8.593-83.627 41.678-162.56 94.957-227.413l61.013 61.013c-37.943 48.23-62.132 105.702-70.036 166.4h-85.934zM300.598 176.213l-59.724-58.453c65.085-53.875 144.767-87.424 229.014-96.427v85.333c-61.125 7.851-119.002 31.868-167.572 69.547h-1.719zM555.823 405.333v256h-85.935v-256h85.935zM555.823 234.667v85.333h-85.935v-85.333h85.935z" />
<glyph unicode="&#xe908;" glyph-name="moon" d="M938.816 386.065c-4.54 1.058-9.259 1.092-13.811 0.098-4.557-0.994-8.836-2.987-12.527-5.841-30.195-25.801-64.704-46.033-101.926-59.763-36.949-14.016-76.169-21.030-115.669-20.685-44.228-0.060-88.038 8.644-128.913 25.604s-78.016 41.843-109.291 73.229c-31.278 31.386-56.077 68.659-72.977 109.675-16.901 41.021-25.571 84.982-25.515 129.369 0.124 37.903 6.311 75.541 18.324 111.476 12.095 36.064 30.732 69.573 54.97 98.835 2.419 3.013 4.22 6.477 5.299 10.191s1.417 7.607 0.994 11.452c-0.427 3.846-1.609 7.569-3.473 10.955s-4.382 6.368-7.398 8.775c-3.694 2.854-7.973 4.85-12.528 5.844s-9.273 0.96-13.814-0.098c-96.389-26.612-181.579-83.874-242.788-163.192-41.148-53.776-69.797-116.102-83.853-182.419s-13.162-134.947 2.615-200.876c15.777-65.924 46.039-127.479 88.573-180.156 42.534-52.681 96.263-95.155 157.259-124.314s127.717-44.271 195.28-44.224c67.563 0.047 134.263 15.245 195.217 44.489 60.958 29.244 114.633 71.787 157.094 124.523s72.64 114.334 88.329 180.279c5.726 17.237-3.435 33.327-19.469 36.774zM763.597 145.873c-58.108-45.85-127.889-74.385-201.382-82.342-73.489-7.957-147.732 4.979-214.249 37.333-66.516 32.358-122.627 82.829-161.928 145.655-39.301 62.822-60.207 135.471-60.333 209.651-0.432 86.937 28.198 171.508 81.311 240.191 35.286 46.043 80.253 83.713 131.701 110.327-6.032-12.73-11.384-25.773-16.033-39.074-14.813-42.063-22.177-86.403-21.759-131.014-0.026-52.075 10.175-103.643 30.022-151.763 19.846-48.115 48.948-91.831 85.643-128.657 36.692-36.821 80.259-66.027 128.208-85.943 47.949-19.913 99.337-30.153 151.232-30.127 46.511-0.316 92.689 7.863 136.282 24.137 14.886 5.747 29.777 11.49 43.52 18.385-27.247-53.107-65.519-99.738-112.235-136.759z" />
<glyph unicode="&#xe909;" glyph-name="fill-line-horizontal" d="M149.955 810.031c-71.603-71.605-120.364-162.835-140.118-262.154-19.754-99.318-9.613-202.26 29.14-295.817 38.753-93.553 104.377-173.517 188.574-229.775s183.186-86.286 284.449-86.286c101.263 0 200.253 30.027 284.45 86.286s149.821 136.223 188.573 229.775c38.755 93.556 48.893 196.499 29.14 295.817-19.753 99.319-68.516 190.549-140.117 262.154-47.544 47.546-103.987 85.261-166.106 110.993s-128.7 38.975-195.939 38.975c-67.239 0-133.82-13.244-195.939-38.975-62.12-25.732-118.563-63.447-166.107-110.993zM589.653 516.267h229.547v-136.533h-614.4v136.533h384.853z" />
<glyph unicode="&#xe90a;" glyph-name="star" d="M532.378 874.667c11.87 0 22.711-6.739 27.968-17.384l121.25-245.638 271.147-39.633c11.746-1.716 21.495-9.951 25.156-21.241s0.597-23.68-7.906-31.962l-196.173-191.074 46.298-269.939c2.005-11.703-2.803-23.531-12.412-30.507-9.604-6.98-22.34-7.898-32.845-2.372l-242.483 127.518-242.481-127.518c-10.508-5.525-23.242-4.608-32.848 2.372-9.606 6.976-14.416 18.803-12.409 30.507l46.298 269.939-196.175 191.074c-8.503 8.282-11.568 20.671-7.907 31.962s13.413 19.525 25.158 21.241l271.149 39.633 121.248 245.638c5.257 10.645 16.098 17.384 27.968 17.384zM532.378 773.014l-100.531-203.666c-4.54-9.196-13.309-15.573-23.457-17.056l-224.859-32.867 162.682-158.451c7.357-7.164 10.714-17.493 8.978-27.614l-38.386-223.812 201.058 105.732c9.088 4.779 19.942 4.779 29.030 0l201.058-105.732-38.387 223.812c-1.737 10.121 1.621 20.45 8.981 27.614l162.679 158.451-224.858 32.867c-10.15 1.484-18.918 7.86-23.458 17.056l-100.531 203.666z" />
<glyph unicode="&#xe90b;" glyph-name="copy" d="M832 896h-544c0-4.788 0-3.6 0-8v-64c8 0 3.6 0 8 0h496v-696c-2.667 0 3.601 0 8 0h64c0 0 0 3.601 0 8v728c0 17.7-14.302 32-32 32zM704 768h-512c-17.7 0-32-14.3-32-32v-530.701c0-8.499 3.4-16.597 9.4-22.601l173.3-173.299c2.2-2.197 4.7-3.998 7.4-5.5l4.2-1.899c3.5-1.301 7.2-2.001 11-2.001h338.7c17.698 0 32 14.302 32 32v704c0 17.7-14.302 32-32 32zM350 103.799l-86.1 86.199h86.1v-86.199zM664 72h-250v141.999c0 22.101-17.9 40-40 40h-142v442.001h432v-624z" />
<glyph unicode="&#xe90c;" glyph-name="info" d="M512.499 894.708c-88.605 0-175.221-26.275-248.894-75.502s-131.095-119.195-165.003-201.056c-33.908-81.861-42.78-171.938-25.494-258.842s59.954-166.729 122.608-229.385c62.654-62.652 142.48-105.323 229.384-122.607 86.904-17.289 176.982-8.414 258.842 25.493s151.829 91.328 201.058 165.001c49.225 73.677 75.499 160.29 75.499 248.896 0 118.818-47.198 232.769-131.217 316.785-84.015 84.016-197.965 131.216-316.783 131.216v0zM512.499 62.707c-75.947 0-150.19 22.524-213.338 64.717s-112.367 102.165-141.431 172.335c-29.064 70.165-36.669 147.375-21.852 221.862 14.816 74.49 51.389 142.913 105.092 196.616s122.126 90.276 196.614 105.092c74.487 14.817 151.697 7.212 221.867-21.852 70.165-29.064 130.138-78.282 172.331-141.431 42.197-63.148 64.717-137.389 64.717-213.34 0-101.841-40.457-199.514-112.469-271.526-72.013-72.017-169.685-112.474-271.531-112.474zM544.538 678.959h-64.081v-64h64.081v64zM544.538 529.626h-64.081v-315.166h64.081v315.166z" />
<glyph unicode="&#xe90d;" glyph-name="add-employee" d="M676.139 312.627c23.957 13.5 51.379 21.18 80.58 21.18h0.098c2.97 0 4.356 3.738 2.18 5.815-30.37 28.578-65.062 51.665-102.656 68.305-0.397 0.209-0.794 0.311-1.19 0.521 61.474 46.818 101.47 122.914 101.47 208.765 0 142.222-109.683 257.453-245.005 257.453-135.325 0-244.909-115.231-244.909-257.453 0-85.851 39.993-161.947 101.566-208.765-0.396-0.209-0.792-0.311-1.188-0.521-44.25-19.618-83.945-47.753-118.097-83.669-33.955-35.546-60.988-77.679-79.59-124.058-18.302-45.414-28.18-94.071-29.104-143.364-0.026-1.109 0.159-2.21 0.545-3.243 0.386-1.028 0.965-1.971 1.703-2.765s1.62-1.421 2.594-1.852c0.974-0.431 2.020-0.653 3.077-0.653h59.296c4.257 0 7.82 3.635 7.919 8.098 1.98 80.141 32.569 155.2 86.717 212.087 55.93 58.859 130.374 91.251 209.568 91.251 56.128 0 109.978-16.299 156.407-46.818 1.19-0.789 2.56-1.229 3.968-1.284s2.803 0.277 4.049 0.969zM511.714 438.656c-45.338 0-88.005 18.581-120.178 52.322-15.829 16.559-28.378 36.237-36.924 57.9-8.546 21.665-12.919 44.89-12.869 68.335 0 47.65 17.719 92.496 49.793 126.235s74.738 52.321 120.178 52.321c45.436 0 88.004-18.582 120.175-52.321 15.829-16.557 28.378-36.235 36.924-57.9s12.919-44.89 12.868-68.335c0-47.65-17.719-92.495-49.792-126.235-32.171-33.741-74.837-52.322-120.175-52.322zM875.806 191.586h-83.153v87.202c0 4.565-3.563 8.303-7.919 8.303h-55.437c-4.356 0-7.919-3.738-7.919-8.303v-87.202h-83.153c-4.356 0-7.919-3.738-7.919-8.307v-58.133c0-4.57 3.563-8.307 7.919-8.307h83.153v-87.202c0-4.565 3.563-8.303 7.919-8.303h55.437c4.356 0 7.919 3.738 7.919 8.303v87.202h83.153c4.356 0 7.919 3.738 7.919 8.307v58.133c0 4.57-3.563 8.307-7.919 8.307z" />
<glyph unicode="&#xe90e;" glyph-name="kronio-box" d="M916.774 824.994c0.107 12.158-2.214 24.216-6.818 35.468-4.608 11.252-11.409 21.475-20.006 30.071-8.602 8.596-18.825 15.392-30.080 19.993s-23.313 6.914-35.473 6.804h-624.809c-12.158 0.11-24.216-2.203-35.471-6.804s-21.481-11.397-30.080-19.993c-8.599-8.596-15.401-18.818-20.006-30.071s-6.924-23.31-6.82-35.468v-753.946c-0.105-12.16 2.214-24.222 6.819-35.477s11.406-21.478 20.005-30.076c8.599-8.602 18.824-15.403 30.079-20.006s23.314-6.925 35.474-6.818h634.093c22.042 0.009 43.179 8.772 58.761 24.363s24.333 36.732 24.333 58.773v763.187zM199.588 49.344c-5.76 0.021-11.278 2.321-15.351 6.391-4.073 4.075-6.371 9.591-6.392 15.351v753.907c0.022 5.749 2.315 11.257 6.38 15.322s9.572 6.359 15.321 6.38h624.85c5.764-0.011 11.29-2.305 15.364-6.381s6.37-9.599 6.379-15.362v-740.785c0-9.195-3.648-18.010-10.15-24.508-6.498-6.498-15.313-10.15-24.503-10.15l-611.898-0.166zM361.958 553.757v160.493h66.014v-82.516l-66.014-77.978zM427.972 263.258v-80.823h-66.014v157.687l66.014-76.864zM376.417 447.565l183.348 217.018h82.56l-186.569-217.018 231.044-265.66h-86.31l-207.447 243.051-16.627 22.609z" />
<glyph unicode="&#xe90f;" glyph-name="bell-notification" d="M835.004 298.543c-18.197 17.638-26.227 26.291-26.227 46.502v237.361c-0.064 57.065-17.609 112.825-50.415 160.207-32.802 47.382-79.39 84.25-133.841 105.926l-0.132-0.305v0.288c-33.216 16.184-69.705 25.080-106.867 26.056-2.15 0-4.301 0.090-6.379 0.090s-4.233 0-6.383-0.090c-36.838-0.899-73.105-11.005-105.271-26.092v0.144c-54.484-21.668-101.097-58.545-133.917-105.946s-50.368-103.188-50.414-160.277v-237.361c0.195-6.485-0.999-12.941-3.506-18.953-3.951-8.994-11.371-16.525-22.742-27.55-7.095-6.652-13.814-13.666-20.127-21.022-1.336-1.617-2.671-3.273-3.97-4.996-1.299-1.728-2.597-3.473-3.84-5.308-11.223-16.397-20.015-37.419-20.015-66.027v-35.964h259.699v-35.964c-0.009-12.642 2.276-25.19 6.752-37.065 1.236-3.307 2.646-6.532 4.229-9.673 5.454-10.953 12.772-20.932 21.649-29.525 1.259-1.225 2.56-2.411 3.874-3.597 2.637-2.398 5.38-4.599 8.239-6.601 8.636-6.289 18.18-11.311 28.322-14.908 5.158-1.835 10.445-3.298 15.825-4.369 3.712-0.717 7.309-1.259 11.132-1.634 3.819-0.38 7.531-0.559 11.371-0.559 29.508 0.034 57.796 11.409 78.66 31.637 20.868 20.228 32.606 47.65 32.64 76.254v36.002h259.699v35.964c-0.094 50.85-27.81 77.734-48.047 97.353zM549.056 129.263c0-9.54-3.908-18.688-10.867-25.434-6.955-6.741-16.393-10.53-26.231-10.53s-19.277 3.789-26.231 10.53c-6.959 6.746-10.867 15.893-10.867 25.434v35.964h74.197v-35.964zM230.851 237.154c2.931 3.11 6.307 6.417 10.128 10.121l0.408 0.414c7.101 6.652 13.826 13.67 20.145 21.022 1.354 1.617 2.671 3.273 3.988 5.001 1.317 1.724 2.578 3.469 3.84 5.303 11.279 16.401 20.052 37.419 20.052 66.031v237.361c-0.073 42.789 13.009 84.628 37.573 120.179s59.5 63.2 100.346 79.421v0c21.261 9.402 43.998 15.292 67.264 17.425l9.015 0.557c2.761 0.108 5.564 0.198 8.346 0.198 2.799 0 5.564 0 8.346-0.198 2.099 0 9.015-0.557 9.015-0.557 23.181-1.968 45.833-7.795 66.965-17.227v0c40.947-16.177 75.981-43.834 100.612-79.429 24.636-35.594 37.747-77.506 37.662-120.369v-237.361c0-50.854 27.712-77.739 47.949-97.357 4.006-3.883 7.514-7.317 10.556-10.534h-562.211zM853.333 832c0-70.692-57.308-128-128-128s-128 57.308-128 128c0 70.692 57.308 128 128 128s128-57.308 128-128z" />
<glyph unicode="&#xe910;" glyph-name="no-data-megaphone" d="M81.588 684.042v-29.512l276.896-50.32c6.336-1.158 12.056-4.528 16.14-9.509s6.269-11.25 6.164-17.691v-59.023c0.105-6.443-2.079-12.71-6.164-17.69-4.084-4.983-9.804-8.354-16.14-9.51l-32.096-4.762v-46.784c0-7.211-2.866-14.131-7.967-19.234-5.101-5.099-12.019-7.966-19.233-7.966h-108.8c-7.214 0-14.132 2.867-19.233 7.966-5.101 5.103-7.967 12.023-7.967 19.234v17.139l-81.6-14.827v-29.513h-27.2v272.001h27.2zM190.388 439.241h108.8v41.754l-108.8-19.721v-22.033zM353.588 518.528v59.025l-272 49.368v-157.759l272 49.365zM901.598 837.583v-44.268l-415.343-75.48c-9.506-1.738-18.086-6.793-24.213-14.264s-9.404-16.875-9.246-26.536v-88.536c-0.158-9.661 3.119-19.064 9.246-26.536s14.707-12.526 24.213-14.264l48.141-7.14v-70.176c0-10.82 4.301-21.197 11.951-28.851 7.65-7.65 18.031-11.947 28.851-11.947h163.2c10.82 0 21.197 4.297 28.851 11.947 7.65 7.654 11.947 18.031 11.947 28.851v25.702l122.402-22.234v-44.267h40.798v407.998h-40.798zM738.398 470.383h-163.2v62.63l163.2-29.581v-33.050zM493.598 589.315v88.536l408 74.052v-236.639l-408 74.051zM660.019 331.209v-32.986l-301.327-56.239c-6.896-1.293-13.12-5.060-17.565-10.628s-6.822-12.574-6.708-19.772v-65.967c-0.114-7.198 2.263-14.204 6.708-19.772s10.669-9.335 17.565-10.628l34.928-5.321v-52.288c0-8.064 3.119-15.795 8.67-21.495s13.080-8.905 20.93-8.905h118.399c7.851 0 15.381 3.204 20.932 8.905s8.67 13.431 8.67 21.495v19.153l88.798-16.567v-32.986h29.602v304h-29.602zM541.619 57.609h-118.399v46.665l118.399-22.042v-24.623zM364.020 146.223v65.971l295.999 55.172v-176.32l-295.999 55.177z" />
<glyph unicode="&#xe911;" glyph-name="x-rounded" d="M640.239 274.551l-301.697 301.699 45.255 45.255 301.699-301.697-45.257-45.257zM338.551 319.799l301.701 301.701 45.252-45.255-301.698-301.698-45.255 45.252zM512 64c-212.077 0-384 171.921-384 384 0 212.077 171.923 384 384 384 212.079 0 384-171.923 384-384 0-212.079-171.921-384-384-384zM512 0c247.424 0 448 200.576 448 448s-200.576 448-448 448c-247.424 0-448-200.576-448-448s200.576-448 448-448z" />
<glyph unicode="&#xe912;" glyph-name="user" d="M883.46 178.278c-20.224 47.902-49.57 91.409-86.409 128.107-36.723 36.8-80.226 66.142-128.107 86.404-0.427 0.218-0.858 0.324-1.284 0.538 66.786 48.239 110.204 126.822 110.204 215.477 0 146.868-118.997 265.863-265.865 265.863s-265.861-118.995-265.861-265.863c0-88.655 43.417-167.238 110.204-215.584-0.429-0.213-0.858-0.324-1.286-0.538-48.027-20.262-91.122-49.314-128.107-86.404-36.802-36.723-66.144-80.226-86.406-128.107-19.905-46.874-30.64-97.131-31.625-148.049-0.029-1.143 0.172-2.283 0.59-3.345 0.418-1.067 1.045-2.039 1.844-2.859s1.754-1.468 2.809-1.911c1.055-0.444 2.188-0.674 3.332-0.674h64.322c4.717 0 8.469 3.75 8.576 8.363 2.144 82.761 35.377 160.269 94.124 219.012 60.784 60.787 141.508 94.234 227.483 94.234 85.978 0 166.703-33.446 227.486-94.234 58.748-58.743 91.981-136.252 94.123-219.012 0.107-4.719 3.861-8.363 8.576-8.363h64.324c1.143 0 2.274 0.23 3.332 0.674 1.054 0.444 2.010 1.092 2.807 1.911s1.425 1.792 1.843 2.859c0.418 1.062 0.619 2.202 0.593 3.345-1.075 51.243-11.686 101.094-31.625 148.156v0zM512 424.414c-49.203 0-95.516 19.191-130.357 54.033s-54.030 81.151-54.030 130.357c0 49.206 19.189 95.518 54.030 130.359s81.154 54.030 130.357 54.030c49.207 0 95.518-19.189 130.359-54.030s54.029-81.152 54.029-130.359c0-49.206-19.187-95.515-54.029-130.357s-81.152-54.033-130.359-54.033z" />
<glyph unicode="&#xe913;" glyph-name="overtime" d="M883.213 695.467c-51.2 72.533-119.467 132.267-200.533 166.4s-170.667 42.667-260.267 25.6c-85.333-17.067-166.4-59.733-226.133-123.733s-106.667-140.8-123.733-230.4c-17.067-76.8-8.533-157.867 17.067-230.4 8.533 29.867 25.6 55.467 46.933 76.8-12.8 72.533-4.267 145.067 21.333 213.333 29.867 68.267 76.8 132.267 140.8 170.667s136.534 68.267 213.334 68.267c102.4 0 200.533-38.4 273.067-110.933s110.933-170.667 110.933-273.067c0-76.8-21.333-149.333-64-213.333s-102.4-110.933-170.667-140.8c-68.267-29.867-140.8-34.133-213.333-21.333-21.333-21.333-42.667-38.4-68.267-51.2 42.667-12.8 85.334-21.333 132.267-21.333 119.467 0 234.667 46.933 315.733 132.267 85.333 85.333 132.267 196.267 132.267 315.733 0 89.6-25.6 174.933-76.8 247.467zM657.075 255.991l-179.2 179.2v302.933h64v-273.067l162.133-162.133-46.933-46.933zM174.959 251.75h85.333v85.333h55.467v-85.333h85.333v-55.467h-85.333v-85.333h-55.467v85.333h-85.333v55.467zM290.159 0c123.733 0 221.867 102.4 221.867 221.867s-102.4 226.133-221.867 226.133c-119.467 0-221.867-102.4-221.867-221.867s98.133-226.133 221.867-226.133zM290.159 392.533c93.867 0 166.4-76.8 166.4-166.4s-76.8-166.4-166.4-166.4c-89.6 0-166.4 76.8-166.4 166.4s72.533 166.4 166.4 166.4z" />
<glyph unicode="&#xe914;" glyph-name="user-thin" d="M512 832c31.646 0 62.579-9.384 88.892-26.965s46.818-42.569 58.931-71.806c12.109-29.236 15.275-61.407 9.101-92.444-6.17-31.037-21.41-59.546-43.785-81.923-22.379-22.377-50.889-37.617-81.924-43.787-31.036-6.174-63.206-3.008-92.446 9.105-29.234 12.108-54.223 32.616-71.804 58.927s-26.965 57.246-26.965 88.891c0 42.435 16.857 83.131 46.863 113.137s70.701 46.863 113.137 46.863zM512 896c-44.301 0-87.611-13.137-124.448-37.751s-65.548-59.598-82.502-100.528c-16.954-40.931-21.39-85.969-12.747-129.421s29.977-83.365 61.304-114.691c31.327-31.326 71.24-52.663 114.693-61.303 43.452-8.644 88.491-4.207 129.421 12.745 40.93 16.956 75.913 45.666 100.527 82.503s37.751 80.145 37.751 124.448c0 59.409-23.599 116.384-65.609 158.392s-98.982 65.608-158.391 65.608v0zM832 0h-64v160c0 21.013-4.139 41.818-12.181 61.231-8.038 19.409-19.823 37.047-34.679 51.908-14.861 14.857-32.499 26.641-51.908 34.679-19.413 8.043-40.218 12.181-61.231 12.181h-192c-42.435 0-83.131-16.858-113.137-46.861-30.006-30.007-46.863-70.703-46.863-113.139v-160h-64v160c0 59.409 23.6 116.382 65.608 158.391s98.983 65.609 158.392 65.609h192c59.409 0 116.382-23.599 158.391-65.609s65.609-98.982 65.609-158.391v-160z" />
<glyph unicode="&#xe915;" glyph-name="no-data-schedule" d="M672 0c-50.633 0-100.126 15.014-142.225 43.145s-74.91 68.109-94.289 114.889c-19.375 46.78-24.445 98.253-14.567 147.908 9.878 49.66 34.257 95.275 70.063 131.076 35.802 35.806 81.417 60.186 131.076 70.063 49.655 9.877 101.129 4.809 147.908-14.566 46.78-19.379 86.758-52.19 114.889-94.289s43.145-91.593 43.145-142.225c0-67.895-26.97-133.009-74.982-181.018-48.009-48.013-113.122-74.982-181.018-74.982zM672 448c-37.973 0-75.093-11.26-106.671-32.358-31.573-21.099-56.183-51.085-70.716-86.165-14.528-35.085-18.334-73.69-10.923-110.933 7.407-37.244 25.694-71.454 52.544-98.308 26.854-26.85 61.065-45.137 98.308-52.544 37.244-7.411 75.849-3.61 110.933 10.923 35.081 14.532 65.067 39.142 86.165 70.716 21.099 31.578 32.358 68.698 32.358 106.671 0 50.923-20.228 99.759-56.235 135.765s-84.843 56.235-135.765 56.235zM722.88 160l-82.88 82.88v141.12h64v-114.88l64-64-45.12-45.12zM896 768c0 16.974-6.741 33.253-18.743 45.255s-28.284 18.745-45.257 18.745h-128v64h-64v-64h-256v64h-64v-64h-128c-16.974 0-33.253-6.743-45.255-18.745s-18.745-28.281-18.745-45.255v-640c0-16.973 6.743-33.254 18.745-45.257s28.281-18.743 45.255-18.743h128v64h-128v640h128v-64h64v64h256v-64h64v64h128v-192h64v192zM320 607.917h64v-64h-64v64zM320 448h64v-64h-64v64zM320 288h64v-64h-64v64zM480 607.917h64v-64h-64v64zM639.957 607.917h64v-64h-64v64z" />
<glyph unicode="&#xe916;" glyph-name="no-data-task" d="M256 329.583h256l-48.585-48h-207.415v48zM256 617.583h384v-48h-384v48zM256 473.583h160v-48h-160v48zM256 185.583h160v-48h-160v48zM736 387.2c-3.2 0-19.2-19.2-32-32v-291.2h-512v723.2h121.6v-54.4c0-19.2 16-35.2 35.2-35.2h195.2c19.2 0 35.2 16 35.2 35.2v54.4h124.8v-288c9.6 0 22.4 32 25.6 32s25.6 38.4 38.4 35.2v246.4c0 19.2-16 35.2-35.2 35.2h-153.6v12.8c0 19.2-16 35.2-35.2 35.2h-195.2c-19.2 0-35.2-16-35.2-35.2v-9.6h-150.4c-19.2-3.2-35.2-19.2-35.2-38.4v-777.6c0-19.2 16-35.2 35.2-35.2h569.6c19.2 0 35.2 16 35.2 35.2v380.8c-12.8-9.6-22.4-22.4-32-28.8zM374.4 835.2h150.4v-80h-150.4v80zM820.911 519.872l43.089 43.087-22.622 22.624-43.089-43.088-17.489 17.488c-2.889 3.034-6.366 5.45-10.214 7.101s-7.996 2.502-12.186 2.502c-4.19 0-8.337-0.851-12.186-2.502s-7.326-4.067-10.214-7.101l-288-288v-102.4h102.4l288 288c3.034 2.889 5.449 6.366 7.1 10.214 1.651 3.853 2.505 7.996 2.505 12.186s-0.853 8.337-2.505 12.186c-1.651 3.853-4.066 7.326-7.1 10.214l-17.489 17.489zM537.6 201.583h-57.6v57.6l278.4 278.4 57.6-57.6-278.4-278.4zM528 432.209l121.378 121.374 22.622-22.622-121.378-121.378-22.622 22.626z" />
<glyph unicode="&#xe917;" glyph-name="warning" d="M490.667 234.667c-9.493 0-18.773-2.816-26.667-8.090s-14.046-12.77-17.681-21.542c-3.631-8.768-4.582-18.419-2.731-27.733 1.852-9.31 6.426-17.865 13.137-24.576s15.266-11.285 24.576-13.137c9.314-1.852 18.965-0.9 27.733 2.731 8.772 3.635 16.269 9.788 21.542 17.681s8.090 17.173 8.090 26.667c0 12.732-5.056 24.939-14.059 33.941s-21.21 14.059-33.941 14.059zM522.667 586.667h-64v-288h64v288zM906.667 10.667h-832c-5.498 0-10.903 1.417-15.694 4.113s-8.807 6.579-11.66 11.281c-2.853 4.698-4.447 10.052-4.628 15.548s1.056 10.944 3.593 15.821l416 800.002c2.701 5.196 6.78 9.55 11.785 12.589s10.748 4.646 16.606 4.646c5.858 0 11.601-1.607 16.606-4.646s9.084-7.394 11.785-12.589l416-800.002c2.539-4.877 3.776-10.325 3.593-15.821s-1.775-10.85-4.629-15.548c-2.854-4.702-6.869-8.585-11.661-11.281s-10.193-4.113-15.693-4.113v0zM127.489 74.667l726.42 0.107-363.307 698.408-363.113-698.515z" />
<glyph unicode="&#xe918;" glyph-name="no-data-clock" d="M520.845 74.782c-21.534-3.934-43.9-5.594-66.884-4.766-161.923 6.212-292.374 138.321-296.723 300.245-4.555 173.935 135.628 317.017 308.733 317.017 146.603 0 269.598-102.704 301.073-239.987 3.729-15.945 17.809-27.127 34.167-27.127 22.566 0 39.134 20.915 34.163 42.863-13.043 57.566-39.548 111.401-77.854 157.369l35.2 35.201c13.666 13.666 13.666 35.822 0 49.489s-35.823 13.666-49.489 0l-35.2-35.201c-59.017 49.074-130.453 78.685-206.861 85.725v70.402h32.926c19.669 0 36.237 15.944 35.823 35.615-0.623 19.050-16.154 34.373-35.204 34.373h-136.661c-19.671 0-36.236-15.944-35.822-35.615 0.414-19.050 15.944-34.373 34.994-34.373h33.75v-70.402c-191.326-17.187-343.726-177.869-343.726-376.858 0-209.344 169.379-378.722 378.721-378.722 22.985 0 45.555 2.069 67.298 6.003 16.772 2.901 28.988 17.395 28.988 34.377-0.209 21.948-19.878 38.306-41.412 34.372zM377.477 190.391l158.191 158.191v267.418h-56.495v-241.050l-143.127-143.125 41.431-41.434zM819.614 156.749l-56.567 56.567 56.567 56.567-37.713 37.713-56.567-56.567-56.567 56.567-37.713-37.713 56.567-56.567-56.567-56.567 37.713-37.713 56.567 56.567 56.567-56.567 37.713 37.713zM725.333 0c-117.333 0-213.333 96-213.333 213.333s96 213.333 213.333 213.333c117.333 0 213.333-96 213.333-213.333s-96-213.333-213.333-213.333zM725.333 373.333c-88 0-160-72-160-160s72-160 160-160c88 0 160 72 160 160s-72 160-160 160z" />
<glyph unicode="&#xe919;" glyph-name="download" d="M768 874.667h-341.333l-256-256v-512c0-46.933 38.4-85.333 85.333-85.333h512c46.933 0 85.333 38.4 85.333 85.333v682.667c0 46.933-38.4 85.333-85.333 85.333zM781.001 802.091v-708.049h-537.571v489.212l218.651 218.837h318.921zM654.208 394.679l-142.221-142.221-142.223 142.221h106.665v248.89h71.113v-248.89h106.667z" />
<glyph unicode="&#xe91a;" glyph-name="eye-off" d="M178.333 261.013l45.76 45.44c-50.105 44.988-89.473 100.651-115.2 162.88 64.96 162.24 244.16 288 413.761 288 43.644-0.576 86.895-8.361 128-23.040l49.6 49.92c-56.235 23.766-116.553 36.373-177.6 37.12-104.304-3.922-205.172-38.322-290.138-98.947s-150.305-144.818-187.942-242.173c-2.542-7.031-2.542-14.729 0-21.76 28.424-75.426 74.254-143.074 133.76-197.44v0zM394.652 477.948c2.225 30.665 15.414 59.505 37.156 81.246 21.739 21.74 50.577 34.929 81.246 37.155l57.92 58.24c-32.457 8.546-66.586 8.435-98.987-0.322-32.397-8.756-61.937-25.853-85.668-49.585s-40.829-53.27-49.585-85.671c-8.757-32.397-8.868-66.526-0.322-98.982l58.24 57.92zM1000.747 480.213c-36.693 95.578-100.54 178.335-183.68 238.080l153.6 153.92-45.12 45.12-850.88-850.88 45.12-45.12 163.2 163.2c72.764-42.688 155.328-65.839 239.68-67.2 104.303 3.921 205.171 38.323 290.138 98.948s150.306 144.815 187.942 242.172c2.543 7.031 2.543 14.729 0 21.76zM650.667 469.333c-0.137-22.404-6.148-44.378-17.438-63.731-11.29-19.349-27.46-35.401-46.895-46.541-19.435-11.145-41.455-16.99-63.859-16.96-22.404 0.034-44.407 5.948-63.808 17.152l174.080 174.080c11.503-19.383 17.685-41.459 17.92-64v0zM522.667 181.333c-67.136 1.173-132.995 18.517-192 50.56l81.28 81.28c36.971-25.651 81.779-37.504 126.596-33.489 44.817 4.019 86.801 23.65 118.622 55.471s51.452 73.805 55.471 118.622c4.015 44.817-7.838 89.626-33.489 126.596l91.84 91.84c73.425-50.4 130.846-120.814 165.44-202.88-64.96-162.24-244.16-288-413.76-288z" />
<glyph unicode="&#xe91b;" glyph-name="pin" d="M200.367 515.063c11.117 4.791 32.213 10.355 70.297 10.355 28.875 0 67.509-3.204 118.875-12.442 12.878-2.24 26.527 2.398 35.406 12.365l161.142 177.966c13.943 15.107 23.74 26.853 22.379 40.531-2.675 28.438-4.437 94.624 34.308 108.959 2.859-1.623 6.967-4.714 8.802-6.607l258.773-268.687c2.458-2.743 6.566-10.78 8.439-16.344-15.484-13.214-55.108-29.094-101.85-19.164-6.827 3.902-17.28 6.105-28.254-4.946l-194.159-189.943c-9.284-9.31-13.615-22.255-11.853-35.546 3.046-22.643 10.347-101.619-20.727-167.573l-361.579 371.076zM533.692 113.655c7.377-7.65 17.062-11.823 27.226-11.823 2.052 0 4.147 0.196 6.272 0.542 12.437 2.086 23.334 10.355 29.205 22.217 36.911 74.842 30.673 159.808 25.758 191.526l188.215 184.149c62.703-12.557 120.457 9.583 143.13 37.363 18.125 22.178-6.494 61.511-14.75 70.089l-258.807 268.687c-0.917 1.005-23.117 24.187-43.405 18.778-50.231-13.484-75.106-67.925-68.723-149.876-2.125-2.859-6.234-7.573-13.171-15.107l-158.644-175.261c-98.255 17.58-169.213 17.387-210.893-0.541-12.218-5.254-21.023-16.537-23.518-30.135-2.569-13.756 1.577-27.823 11.080-37.636l155.801-160.956-248.298-267.008c-0.733-0.734-1.284-1.737-1.614-2.782l-14.199-46.246c-1.468-4.83 1.798-9.894 6.237-9.621l51.145 3.204c1.431 0.077 2.752 0.695 3.816 1.818l254.908 266.923 153.229-158.302z" />
<glyph unicode="&#xe91c;" glyph-name="no-data" d="M205.78 166.434c-11.493 11.917-22.858 23.966-34.535 35.712-5.413 5.457-10.047 11.055-11.337 18.961-2.452 14.797 9.027 29.901 23.991 30.75 7.567 0.439 15.191 0.085 23.411 0.085-5.286 5.316-10.047 10.176-14.88 14.967-8.163 8.090-16.467 16.055-24.544 24.247-7.766 7.863-10.274 17.314-6.816 27.874 3.458 10.556 10.897 16.819 21.725 18.253 6.632 0.875 13.463 0.294 20.208 0.354h4.365c-1.417 1.417-2.338 2.436-3.316 3.413-12.060 11.917-24.176 23.778-36.193 35.742-8.191 8.175-10.572 19.627-6.065 29.756 4.847 10.999 13.562 16.597 25.508 16.666 20.931 0.128 41.862-0.085 62.793 0 50.185 0 100.365 0.038 150.54 0.115h221.908c3.678 0.060 7.334-0.623 10.743-2.010 3.409-1.391 6.502-3.452 9.097-6.067l100.105-98.914c7.522-7.411 10.458-16.354 7.821-26.586s-9.395-17.178-19.84-19.558c-4.365-0.99-9.041-0.708-13.577-0.836-4.25-0.128-8.503 0-12.911 0 4.254-4.365 8.149-8.503 12.19-12.54 9.212-9.156 18.675-18.069 27.661-27.452 13.321-13.901 7.906-37.269-10.091-43.729-3.772-1.173-7.697-1.779-11.648-1.801-5.922-0.286-11.874-0.073-18.253-0.073 0.623-0.764 1.037-1.331 1.519-1.813 12.612-12.497 25.31-24.9 37.807-37.495 8.021-8.064 10.048-17.715 6.349-28.459-1.818-5.124-5.167-9.57-9.591-12.736s-9.711-4.898-15.151-4.962c-6.831 0-13.662 0-21.372 0 1.702-1.685 2.837-2.833 4.109-4.079 11.989-11.849 24.094-23.569 35.955-35.558 3.345-3.375 5.739-7.582 6.938-12.181 1.195-4.604 1.152-9.442-0.128-14.020s-3.75-8.738-7.159-12.053c-3.409-3.315-7.637-5.67-12.25-6.822-2.697-0.653-5.461-0.964-8.235-0.934-82.722-0.060-165.436-0.060-248.149 0-59.321 0-118.632 0-177.933 0-4.451-0.068-8.902 0.107-13.335 0.525-5.654 0.751-10.873 3.439-14.766 7.607-33.274 32.896-66.59 65.754-99.949 98.577-12.102 11.93-11.847 29.756 0.709 40.7 4.737 4.173 10.846 6.46 17.161 6.417 5.754 0 11.507 0 17.261 0 0.949 0 1.899 0.098 2.834 0.141l-0.68-0.183zM187.031 396.262c0.978-1.020 1.616-1.728 2.296-2.411l23.014-22.844c24.563-24.354 49.155-48.695 73.775-73.024 0.984-0.887 2.245-1.417 3.571-1.485 7.086-0.145 14.072-0.073 21.115-0.073 29.844 0 59.698 0 89.562 0h174.659c48.597 0 97.19 0.030 145.779 0.085 0.836 0 1.673 0.085 2.197 0.115-4.254 4.407-8.277 8.956-12.612 13.248-28.484 28.343-57.015 56.585-85.594 84.727-1.114 1.015-2.551 1.6-4.053 1.66-14.767 0.115-29.521 0-44.284 0h-389.425zM187.485 225.148c6.505-6.622 12.527-12.898 18.706-19.046 26.585-26.453 53.203-52.826 79.855-79.121 1.189-1.071 2.72-1.69 4.322-1.741 143.497-0.085 286.998-0.115 430.508-0.085h2.944c-0.273 0.448-0.58 0.875-0.922 1.276-18.893 18.705-37.786 37.393-56.683 56.060-1.033 0.849-2.334 1.306-3.669 1.293-8.119 0.111-16.256 0-24.388 0-58.577 0-117.184 0-175.821 0-57.914 0-115.832-0.030-173.754-0.085-3.826-0.081-7.628 0.636-11.164 2.099s-6.732 3.644-9.384 6.4c-10.487 10.534-21.087 20.949-31.8 31.249-1.22 1.079-2.778 1.702-4.407 1.758-7.922 0.111-15.857 0-23.793-0.085-6.689 0.013-13.406 0.030-20.548 0.030zM187.895 139.537l-0.68-0.99c1.132-0.768 2.216-1.609 3.245-2.509 31.63-31.309 63.227-62.639 94.791-93.982 0.758-0.811 1.683-1.442 2.711-1.856s2.134-0.597 3.241-0.542c48.683 0.060 97.365 0.060 146.049 0 49.882 0 99.755 0 149.619 0 44.826 0 89.651-0.047 134.468-0.141 0.695 0 1.417 0.115 2.394 0.201-0.303 0.435-0.636 0.849-0.99 1.246-18.79 18.65-37.606 37.269-56.444 55.863-1.092 0.917-2.47 1.417-3.895 1.417-32.444 0.094-64.879 0.128-97.301 0.098-92.122 0-184.234 0-276.337 0-3.968-0.064-7.907 0.695-11.566 2.231s-6.959 3.819-9.691 6.694c-10.217 10.249-20.548 20.395-30.879 30.528-0.838 0.922-1.969 1.527-3.203 1.715-15.206 0.055-30.369 0.026-45.532 0.026v0zM723.921 210.82c-0.725 0.794-1.024 1.131-1.335 1.417-18.364 18.223-36.719 36.463-55.066 54.716-0.806 0.841-1.783 1.498-2.867 1.92-1.088 0.422-2.249 0.606-3.413 0.529-70.989-0.055-141.982-0.055-212.979 0-53.546 0-107.099 0-160.656 0-3.533-0.034-7.036 0.644-10.301 1.993s-6.225 3.341-8.703 5.858c-10.813 10.645-21.554 21.359-32.424 31.945-1.055 0.96-2.413 1.527-3.84 1.6-14.086 0.085-28.158 0-42.244 0h-3.104c1.12-1.19 1.757-1.899 2.438-2.564 20.784-20.689 41.592-41.37 62.424-62.042 11.337-11.234 22.697-22.43 34.081-33.587 1.124-1.020 2.566-1.621 4.081-1.698 36.845-0.085 73.733-0.085 110.662 0l323.246-0.085zM694.387 575.894l170.052-169.784-32.593-31.915-169.417 169.814c-50.167-37.257-105.306-49.6-165.589-34.437-45.815 11.465-82.108 37.597-108.92 76.326-54.205 78.31-41.337 184.438 29.76 249.044 69.1 62.735 175.937 64.677 248.15 4.931 77.7-64.252 93.077-181.15 28.557-263.98zM689.583 693.515c-0.457 80.974-65.186 145.226-145.779 144.815-19.042-0.070-37.884-3.9-55.441-11.269s-33.489-18.132-46.878-31.672c-13.389-13.54-23.972-29.591-31.143-47.231s-10.788-36.523-10.644-55.564c0.34-80.422 65.626-144.631 146.475-144.093 79.356 0.538 143.851 65.769 143.411 145.042v-0.028z" />
<glyph unicode="&#xe91d;" glyph-name="red-persons" d="M819.046 550.323c113.003 0 204.762 91.791 204.762 204.838s-91.759 204.839-204.762 204.839c-81.907 0-152.606-48.504-185.446-118.458l-54.861 20.291c0.58 4.251 1.353 8.309 1.353 12.754 0 47.152-38.246 85.414-85.38 85.414-46.942 0-85.189-38.262-85.189-85.414s38.247-85.414 85.381-85.414c30.524 0 57.178 16.232 72.247 40.581l54.669-20.291c-4.83-17.392-7.535-35.557-7.535-54.495 0-22.417 3.669-43.866 10.432-63.964l-187.571-79.616c-34.384 64.93-102.573 109.376-181.001 109.376-25.499 0-49.645-4.831-72.246-13.334l-47.327 99.521c20.476 15.653 33.998 40.001 33.998 67.828 0 46.958-38.248 85.221-85.189 85.221-47.134 0-85.382-38.262-85.382-85.414s38.248-85.414 85.382-85.414c7.148 0 13.908 1.159 20.476 2.705l47.134-99.134c-60.849-35.557-101.801-101.453-101.801-176.818 0-70.729 36.123-133.338 90.79-170.057l-31.293-56.038c-8.113 2.513-16.613 4.25-25.499 4.25-46.94 0.196-85.188-38.067-85.188-85.218s38.248-85.414 85.382-85.414c47.134 0 85.382 38.263 85.382 85.414 0 25.894-11.783 48.695-29.941 64.35l31.101 56.427c25.692-11.597 54.088-18.163 84.029-18.163 46.747 0 89.824 16.038 124.402 42.513l67.224-73.822c-33.998-36.523-55.054-85.414-55.054-139.328 0-10.436 0.966-20.676 2.511-30.724l-79.007-18.748c-13.522 29.18-42.884 49.472-77.075 49.472-47.133 0-85.382-38.263-85.382-85.414s38.248-85.414 85.382-85.414c47.134 0 85.382 38.263 85.382 85.414 0 0.969-0.193 1.741-0.193 2.705l78.814 18.748c26.852-81.745 103.733-140.877 194.331-140.877 113.003 0 204.762 91.793 204.762 204.838 0 34.978-8.887 68.023-24.341 96.815l100.258 65.122c15.45-15.65 36.894-25.506 60.655-25.506 47.134 0 85.38 38.263 85.38 85.414s-38.443 85.218-85.577 85.218c-47.134 0-85.38-38.259-85.38-85.414 0-11.012 2.317-21.449 6.182-31.108l-100.45-65.318c-20.087 25.894-46.165 46.767-76.301 60.681l83.255 230.925c16.998-4.638 34.965-7.343 53.316-7.343zM494.903 823.377c-28.203 0-51.191 22.996-51.191 51.209s22.989 51.21 51.191 51.21c28.203 0 51.191-22.996 51.191-51.21s-22.989-51.209-51.191-51.209zM34.191 874.586c0 28.214 22.987 51.21 51.19 51.21s51.191-22.996 51.191-51.21c0-28.213-22.988-51.209-51.191-51.209s-51.19 22.996-51.19 51.209zM85.382 157.649c-28.203 0-51.19 22.997-51.19 51.213 0 28.211 22.987 51.209 51.19 51.209s51.191-22.997 51.191-51.209c0-28.215-22.988-51.213-51.191-51.213zM238.953 4.023c-28.203 0-51.19 22.993-51.19 51.209 0 28.211 22.988 51.209 51.19 51.209s51.191-22.997 51.191-51.209c0-28.215-22.988-51.209-51.191-51.209zM938.423 413.7c28.203 0 51.191-22.997 51.191-51.213 0-28.211-22.989-51.209-51.191-51.209s-51.187 22.997-51.187 51.209c0 28.215 22.985 51.213 51.187 51.213zM718.596 617.572c7.535 39.421 42.496 69.374 83.452 69.374h34.189c40.951 0 75.725-29.953 83.452-69.374-28.203-20.677-62.976-33.045-100.45-33.045-37.862 0-72.439 12.368-100.642 33.045zM819.046 720.957c-28.203 0-51.191 22.996-51.191 51.21s22.989 51.21 51.191 51.21c28.203 0 51.191-22.996 51.191-51.21s-22.989-51.21-51.191-51.21zM819.046 925.796c94.071 0 170.569-76.525 170.569-170.635 0-42.707-15.838-81.742-41.916-111.695-11.977 31.499-36.898 56.62-67.998 68.988 15.066 15.459 24.533 36.523 24.533 59.712 0 47.151-38.251 85.414-85.38 85.414-47.134 0-85.385-38.263-85.385-85.414 0-23.189 9.271-44.253 24.533-59.712-31.1-12.368-56.021-37.489-67.998-68.988-26.078 29.953-41.916 68.988-41.916 111.695 0.384 94.11 76.881 170.635 170.957 170.635zM85.382 516.117c0 94.111 76.496 170.636 170.57 170.636s170.57-76.524 170.57-170.636c0-42.897-16.033-81.933-42.111-111.889-11.977 31.693-36.896 56.815-67.996 69.376 15.067 15.458 24.533 36.523 24.533 59.712 0 47.153-38.248 85.415-85.382 85.415s-85.382-38.262-85.382-85.415c0-23.189 9.272-44.254 24.533-59.712-30.907-12.369-55.827-37.487-67.803-68.796-25.885 29.956-41.532 68.796-41.532 111.309zM204.375 533.316c0 28.215 22.988 51.211 51.19 51.211s51.191-22.996 51.191-51.211c0-28.211-22.988-51.209-51.191-51.209s-51.19 22.997-51.19 51.209zM155.116 378.722c7.727 39.42 42.498 69.18 83.45 69.18h34.191c41.145 0 75.916-29.952 83.45-69.568-28.203-20.484-62.781-32.849-100.256-32.849-37.668 0-72.439 12.365-100.835 33.237zM496.448 3.247c7.727 39.424 42.5 69.184 83.452 69.184h34.193c41.143 0 75.913-29.952 83.447-69.568-28.203-20.484-62.78-32.853-100.254-32.853-37.862 0-72.636 12.369-100.838 33.237zM596.898 106.441c-28.203 0-51.191 22.997-51.191 51.209 0 28.215 22.989 51.213 51.191 51.213s51.191-22.997 51.191-51.213c0-28.211-22.989-51.209-51.191-51.209zM767.855 140.646c0-42.901-16.034-81.937-42.112-111.889-11.977 31.693-36.894 56.815-67.994 69.376 15.066 15.458 24.529 36.523 24.529 59.712 0 47.151-38.246 85.414-85.38 85.414s-85.38-38.263-85.38-85.414c0-23.189 9.271-44.254 24.533-59.712-30.908-12.369-55.829-37.491-67.806-68.796-25.882 29.952-41.724 68.796-41.724 111.309 0 94.11 76.497 170.633 170.569 170.633 94.076 0 170.765-76.523 170.765-170.633zM650.406 338.142c-16.998 4.638-34.769 7.343-53.316 7.343-46.746 0-89.822-16.038-124.399-42.513l-67.032 73.818c33.999 36.523 55.055 85.414 55.055 139.328 0 22.417-3.674 43.868-10.432 63.965l187.567 79.616c21.056-39.808 54.669-71.694 95.812-90.631l-83.255-230.926z" />
<glyph unicode="&#xe91e;" glyph-name="team" d="M846.716 249.092c-26.633 26.624-57.63 48.482-91.657 64.614 33.037 26.735 57.404 62.665 70.025 103.241 12.617 40.58 12.924 83.989 0.883 124.745-12.045 40.754-35.904 77.023-68.553 104.222-32.653 27.2-72.636 44.109-114.897 48.591-42.257 4.482-84.898-3.664-122.53-23.409-37.628-19.745-68.561-50.203-88.887-87.524s-29.13-79.828-25.303-122.153 20.116-82.564 46.807-115.631c9.515-11.81 20.271-22.566 32.081-32.081-34.027-16.132-65.027-37.99-91.655-64.614-59.127-57.873-93.606-136.354-96.236-219.051v-6.417h66.449c2.188 0 4.286 0.87 5.833 2.415 1.547 1.549 2.416 3.648 2.416 5.833v0c2.695 46.899 18.636 92.075 45.972 130.278 27.337 38.208 64.943 67.874 108.463 85.568 29.137 11.78 60.228 17.997 91.652 18.33 63.501 0.034 124.527-24.61 170.189-68.736 45.662-44.122 72.388-104.269 74.526-167.731 0.119-2.227 1.088-4.326 2.709-5.862s3.767-2.389 5.999-2.385h70.114v6.417c-1.553 83.234-35.405 162.607-94.4 221.342v0zM617.579 343.497c-36.446 0.030-71.394 14.537-97.152 40.324-13.248 12.932-23.561 28.561-30.246 45.828-6.993 16.994-10.423 35.243-10.078 53.619 0 36.459 14.481 71.429 40.265 97.211s60.753 40.267 97.212 40.267c36.403-0.059 71.377-14.179 97.613-39.411 25.745-25.777 40.205-60.721 40.205-97.154 0-36.429-14.46-71.373-40.205-97.152-12.595-12.979-27.712-23.249-44.416-30.182-16.704-6.938-34.65-10.385-52.736-10.146l-0.461-3.204zM348.578 452.561v28.416c0.067 16.772 1.755 33.502 5.041 49.95 0.266 1.869-0.081 3.77-0.991 5.423s-2.33 2.966-4.050 3.741c-14.709 6.474-28.076 15.645-39.411 27.037-13.668 12.863-24.447 28.483-31.62 45.827-8.212 21.235-11.022 44.177-8.177 66.766s11.255 44.118 24.475 62.653c13.22 18.536 30.837 33.498 51.269 43.544s43.038 14.86 65.789 14.010c31.41-1.57 61.337-13.863 84.778-34.828 8.299-7.846 15.68-16.609 21.999-26.121 1.097-1.568 2.675-2.731 4.497-3.311s3.785-0.544 5.585 0.103c19.337 6.51 39.305 10.964 59.575 13.29 2.266 0.34 4.322 1.516 5.764 3.298s2.163 4.038 2.027 6.326c0 0 0 0 0 2.749-22.417 41.733-57.993 74.892-101.193 94.322-43.204 19.43-91.617 24.041-137.712 13.119s-87.29-36.768-117.181-73.519c-29.891-36.75-46.803-82.346-48.107-129.7 0.041-31.986 7.221-63.559 21.015-92.417s33.857-54.272 58.723-74.394c-54.556-25.267-100.992-65.233-134.1-115.422-33.107-50.185-51.575-108.604-53.332-168.704-0.214-0.503-0.325-1.050-0.325-1.6 0-0.555 0.111-1.097 0.325-1.604v-3.209h68.74c1.648 0.235 3.201 0.909 4.493 1.958s2.274 2.432 2.839 3.998c1.535 52.915 20.251 103.893 53.321 145.233 33.070 41.335 78.697 70.788 129.986 83.9 2.012 0.623 3.749 1.92 4.917 3.674s1.698 3.853 1.498 5.952l-0.458-0.461z" />
<glyph unicode="&#xe91f;" glyph-name="work" d="M128 608v-448h768v448h-768zM92 672h831.499c20.16 0 36.501-16.342 36.501-36.5v-502.999c0-20.16-16.341-36.501-36.501-36.501h-822.999c-20.158 0-36.5 16.341-36.5 36.501v511.499c0 15.464 12.536 28 28 28zM934.989 480.751l-436.634-97.613-409.772 97.715 14.845 62.253 395.392-94.287 422.204 94.389 13.965-62.458zM388.5 736c-2.485 0-4.5-2.015-4.5-4.5v-59.5h-64v59.5c0 37.832 30.668 68.5 68.5 68.5h246.999c37.833 0 68.501-30.668 68.501-68.5v-59.5h-64v59.5c0 2.485-2.014 4.5-4.501 4.5h-246.999z" />
<glyph unicode="&#xe920;" glyph-name="email" d="M896 768h-768c-16.974 0-33.253-6.743-45.255-18.745s-18.745-28.281-18.745-45.255v-512c0-16.973 6.743-33.254 18.745-45.257s28.281-18.743 45.255-18.743h768c16.973 0 33.254 6.741 45.257 18.743s18.743 28.284 18.743 45.257v512c0 16.974-6.741 33.253-18.743 45.255s-28.284 18.745-45.257 18.745v0zM825.6 704l-313.6-216.96-313.6 216.96h627.2zM128 192v482.88l365.76-253.12c5.355-3.716 11.721-5.709 18.24-5.709s12.885 1.993 18.24 5.709l365.76 253.12v-482.88h-768z" />
<glyph unicode="&#xe921;" glyph-name="movil-tap" d="M272 672h384v-332.8h64v460.8c0 16-6.4 32-19.2 44.8s-28.8 19.2-44.8 19.2h-384c-16 0-32-6.4-44.8-19.2s-19.2-28.8-19.2-44.8v-704c0-16 6.4-32 19.2-44.8s28.8-19.2 44.8-19.2h305.101l-100.301 64h-204.8v576zM272 800h384v-64h-384v64zM755.938 352.166c-10.33-0.038-20.471-2.795-29.397-8-5.393 8.555-12.86 15.603-21.705 20.497-8.845 4.898-18.786 7.475-28.898 7.505-10.33-0.038-20.471-2.799-29.397-8-7.279 11.447-18.219 20.092-31.040 24.525s-26.769 4.386-39.561-0.128v103.603c0 15.91-6.323 31.172-17.574 42.425s-26.513 17.574-42.428 17.574c-15.91 0-31.172-6.321-42.423-17.574-11.255-11.252-17.574-26.514-17.574-42.425v-222.003l-44.6 30.4c-10.224 7.616-22.653 11.686-35.4 11.601-11.901 0.030-23.541-3.482-33.441-10.082-9.9-6.605-17.613-16.004-22.159-27.004-4.545-10.995-5.717-23.1-3.366-34.765s8.117-22.37 16.566-30.75l159.998-146.001c22.652-20.271 52.002-31.458 82.402-31.398h99.998c37.133 0 72.742 14.75 98.995 41.007 26.257 26.253 41.007 61.862 41.007 98.995v120c0 15.91-6.323 31.172-17.574 42.423s-26.513 17.574-42.428 17.574v0zM775.94 172.169c0-26.522-10.534-51.959-29.291-70.711-18.752-18.756-44.19-29.291-70.711-29.291h-99.998c-20.215-0.243-39.834 6.865-55.202 20.002l-158.998 145.997c-3.695 3.725-5.778 8.755-5.8 14.003 0 3.712 1.034 7.351 2.987 10.513 1.952 3.157 4.747 5.713 8.069 7.373s7.041 2.364 10.74 2.031c3.7-0.333 7.233-1.69 10.204-3.917l108-74.001v298.001c0 5.303 2.108 10.389 5.858 14.14s8.836 5.858 14.14 5.858c5.308 0 10.394-2.108 14.144-5.858s5.858-8.836 5.858-14.14v-220.002h40v60.002c0 5.303 2.108 10.389 5.858 14.14s8.836 5.858 14.14 5.858c5.308 0 10.394-2.108 14.144-5.858s5.858-8.836 5.858-14.14v-60.002h40v40c0 5.303 2.108 10.394 5.858 14.144s8.836 5.858 14.14 5.858c5.308 0 10.394-2.108 14.144-5.858s5.858-8.841 5.858-14.144v-40h40v20.002c0 5.303 2.108 10.389 5.858 14.14s8.836 5.858 14.14 5.858c5.308 0 10.394-2.108 14.144-5.858s5.858-8.836 5.858-14.14v-120z" />
<glyph unicode="&#xe922;" glyph-name="no-data-list" d="M426.112 822.641v-79.644h149.611v79.644h-149.611zM367.93 846.535c0 19.794 15.629 35.84 34.909 35.84h196.154c19.281 0 34.91-16.046 34.91-35.84v-10.619h152.107c19.277 0 34.906-16.047 34.906-35.84v-777.859c0-19.797-15.629-35.84-34.906-35.84h-570.184c-19.28 0-34.909 16.043-34.909 35.84v777.859c0 19.793 15.63 35.84 34.909 35.84h152.104v10.619zM367.93 773.843h-123.013v-723.466h511.999v723.466h-123.012v-54.739c0-19.794-15.629-35.84-34.91-35.84h-196.154c-19.28 0-34.909 16.046-34.909 35.84v54.739zM308.916 605.041h48.030v-48.030h-48.030v48.030zM308.916 460.958h48.030v-48.030h-48.030v48.030zM308.916 316.877h48.030v-48.030h-48.030v48.030zM404.958 605.041h288.183v-48.030h-288.183v48.030zM404.958 460.958h288.183v-48.030h-288.183v48.030zM404.958 316.877h288.183v-48.034h-288.183v48.034z" />
<glyph unicode="&#xe923;" glyph-name="alert" d="M479.962 214.46h64.081v64h-64.081v-64zM479.962 363.793h64.081v315.163h-64.081v-315.163zM512 894.708c-88.606 0-175.222-26.275-248.895-75.502s-131.095-119.195-165.003-201.056c-33.908-81.861-42.78-171.938-25.494-258.842s59.954-166.729 122.608-229.385c62.654-62.652 142.48-105.323 229.384-122.607 86.905-17.289 176.983-8.414 258.843 25.493s151.829 91.328 201.054 165.001c49.229 73.677 75.503 160.29 75.503 248.896 0 118.818-47.198 232.769-131.217 316.785-84.015 84.016-197.965 131.216-316.783 131.216v0zM512 62.707c-75.947 0-150.19 22.524-213.339 64.717s-112.367 102.165-141.431 172.335c-29.064 70.165-36.669 147.375-21.852 221.862 14.816 74.49 51.389 142.913 105.092 196.616s122.126 90.276 196.615 105.092c74.487 14.817 151.697 7.212 221.867-21.852 70.165-29.064 130.138-78.282 172.331-141.431 42.197-63.148 64.717-137.389 64.717-213.34 0-101.841-40.457-199.514-112.469-271.526-72.017-72.017-169.685-112.474-271.531-112.474z" />
<glyph unicode="&#xe924;" glyph-name="card" d="M928 800h-832c-17.7 0-32-14.3-32-32v-640c0-17.698 14.3-32 32-32h832c17.698 0 32 14.302 32 32v640c0 17.7-14.302 32-32 32zM136 728h752v-120h-752v120zM888 168h-752v352h752v-352zM650.999 232h165.001c4.399 0 8 3.601 8 8v72c0 4.399-3.601 8-8 8h-165.001c-4.399 0-8-3.601-8-8v-72c0-4.399 3.601-8 8-8z" />
<glyph unicode="&#xe925;" glyph-name="number-three" d="M348.928 566.784c2.731 42.325 18.887 75.321 48.469 98.987 30.037 23.666 68.267 35.499 114.688 35.499 31.859 0 59.392-5.689 82.603-17.067s40.734-26.851 52.565-46.421c11.831-19.57 17.749-41.643 17.749-66.219 0-28.217-7.509-52.339-22.528-72.363s-32.994-33.451-53.931-40.277v-2.731c26.85-8.192 47.787-23.211 62.805-45.056 15.019-21.389 22.528-48.926 22.528-82.603 0-26.85-6.144-50.743-18.432-71.68s-30.494-37.547-54.613-49.835c-24.119-11.831-53.022-17.749-86.699-17.749-49.152 0-89.657 12.514-121.515 37.547-31.403 25.485-48.242 61.897-50.517 109.227h75.093c1.821-24.119 11.149-43.917 27.989-59.392 16.841-15.019 39.595-22.528 68.267-22.528 27.763 0 49.152 7.509 64.171 22.528 15.019 15.475 22.528 35.273 22.528 59.392 0 31.859-10.24 54.387-30.72 67.584-20.023 13.653-50.974 20.48-92.843 20.48h-17.749v64.171h18.432c36.864 0.457 64.853 6.601 83.968 18.432 19.571 11.831 29.355 30.493 29.355 55.979 0 21.845-7.053 39.139-21.163 51.883-14.11 13.198-34.133 19.797-60.075 19.797-25.485 0-45.282-6.599-59.392-19.797-14.11-12.743-22.528-28.672-25.259-47.787h-75.776z" />
<glyph unicode="&#xe926;" glyph-name="camera" d="M928 128h-832c-8.487 0-16.626 3.371-22.627 9.374-6.001 5.999-9.373 14.14-9.373 22.626v544c0 8.487 3.372 16.626 9.373 22.627s14.141 9.373 22.627 9.373h206.72l54.72 81.6c2.899 4.402 6.84 8.020 11.473 10.532s9.816 3.841 15.087 3.868h256c5.269-0.027 10.453-1.356 15.087-3.868s8.576-6.13 11.473-10.532l54.72-81.6h206.72c8.486 0 16.627-3.372 22.626-9.373 6.003-6.001 9.374-14.141 9.374-22.627v-544c0-8.486-3.371-16.627-9.374-22.626-5.999-6.003-14.14-9.374-22.626-9.374zM128 192h768v480h-192c-5.269 0.027-10.453 1.356-15.087 3.868s-8.576 6.13-11.473 10.532l-54.72 81.6h-221.44l-54.72-81.6c-2.899-4.402-6.84-8.020-11.473-10.532s-9.816-3.841-15.087-3.868h-192v-480zM512 256c-37.973 0-75.093 11.26-106.669 32.358-31.575 21.099-56.183 51.085-70.716 86.165-14.532 35.085-18.334 73.69-10.926 110.933s25.695 71.456 52.546 98.307c26.852 26.851 61.064 45.138 98.307 52.546s75.849 3.606 110.933-10.926c35.081-14.532 65.067-39.141 86.165-70.716 21.099-31.576 32.358-68.696 32.358-106.669 0-50.923-20.228-99.759-56.235-135.765s-84.843-56.235-135.765-56.235zM512 576c-25.314 0-50.065-7.507-71.113-21.572-21.050-14.065-37.456-34.057-47.144-57.447-9.688-23.386-12.223-49.122-7.284-73.954 4.939-24.828 17.129-47.637 35.031-65.536 17.9-17.903 40.709-30.093 65.537-35.034 24.832-4.937 50.569-2.402 73.958 7.287 23.386 9.685 43.379 26.091 57.442 47.142 14.067 21.047 21.572 45.798 21.572 71.113 0 33.946-13.487 66.505-37.491 90.51s-56.559 37.49-90.509 37.49v0z" />
<glyph unicode="&#xe927;" glyph-name="sucess" d="M448 272l-160 158.72 50.88 49.28 109.12-107.2 237.12 235.2 50.88-50.56-288-285.44zM512 64c-212.077 0-384 171.921-384 384 0 212.077 171.923 384 384 384 212.079 0 384-171.923 384-384 0-212.079-171.921-384-384-384zM512 0c247.424 0 448 200.576 448 448s-200.576 448-448 448c-247.424 0-448-200.576-448-448s200.576-448 448-448z" />
<glyph unicode="&#xe928;" glyph-name="no-data-location" d="M274.134 434.667c-9.891 0-19.56-2.931-27.783-8.427s-14.634-13.308-18.419-22.443c-3.785-9.139-4.775-19.196-2.846-28.894 1.93-9.702 6.693-18.611 13.686-25.609 6.994-6.993 15.905-11.755 25.606-13.683 9.701-1.933 19.756-0.939 28.893 2.846s16.948 10.193 22.443 18.419c5.495 8.222 8.428 17.89 8.428 27.78-0.015 13.261-5.289 25.971-14.664 35.345s-22.086 14.647-35.345 14.665zM274.134 359.654c-4.945 0-9.78 1.468-13.892 4.215-4.112 2.743-7.317 6.652-9.209 11.221-1.893 4.565-2.388 9.596-1.423 14.447 0.965 4.847 3.346 9.306 6.843 12.8 3.497 3.499 7.953 5.879 12.803 6.844s9.878 0.469 14.447-1.421c4.569-1.894 8.474-5.099 11.222-9.212s4.214-8.947 4.214-13.892c-0.007-6.626-2.644-12.983-7.332-17.673-4.688-4.685-11.043-7.322-17.672-7.33zM369.025 480.832c-23.76 23.753-55.476 37.867-89.028 39.607-33.552 1.745-66.56-8.998-92.655-30.161s-43.426-51.238-48.648-84.429c-5.222-33.19 2.034-67.136 20.369-95.287l94.475-145.037c2.102-3.226 4.977-5.879 8.363-7.714s7.177-2.795 11.029-2.795c3.852 0 7.642 0.96 11.029 2.795s6.26 4.489 8.363 7.714l94.478 145.037c17.012 26.116 24.531 57.284 21.295 88.286s-17.030 59.947-39.069 81.984zM365.849 324.211l-92.919-142.643-92.92 142.643c-28.442 43.661-22.342 102.093 14.505 138.94 10.297 10.3 22.522 18.466 35.977 24.043 13.455 5.572 27.875 8.439 42.438 8.439s28.983-2.867 42.438-8.439c13.455-5.577 25.679-13.743 35.977-24.043 36.847-36.847 42.947-95.279 14.504-138.94zM801.391 679.042c-7.603 0-15.031-2.254-21.355-6.477-6.319-4.223-11.243-10.225-14.153-17.247s-3.669-14.749-2.189-22.204c1.485-7.455 5.146-14.302 10.522-19.677 5.372-5.375 12.22-9.035 19.674-10.518 7.458-1.483 15.185-0.722 22.204 2.187 7.023 2.909 13.026 7.834 17.25 14.154 4.22 6.32 6.477 13.75 6.477 21.351-0.013 10.189-4.066 19.957-11.268 27.162-7.206 7.205-16.973 11.258-27.162 11.269zM801.391 621.396c-3.802 0-7.518 1.127-10.679 3.238-3.157 2.112-5.619 5.112-7.074 8.624s-1.835 7.375-1.097 11.102c0.742 3.727 2.573 7.151 5.261 9.839s6.11 4.518 9.839 5.259c3.729 0.741 7.59 0.361 11.102-1.094s6.511-3.917 8.623-7.077c2.112-3.16 3.238-6.875 3.238-10.676-0.004-5.094-2.031-9.978-5.632-13.581-3.605-3.602-8.486-5.629-13.581-5.635zM874.317 714.504c-18.257 18.255-42.633 29.098-68.416 30.439s-51.149-6.918-71.202-23.18c-20.053-16.262-33.374-39.377-37.389-64.881-4.011-25.505 1.566-51.593 15.654-73.228l72.602-111.457c1.617-2.479 3.827-4.518 6.426-5.926 2.603-1.412 5.517-2.15 8.478-2.15s5.871 0.738 8.474 2.15c2.603 1.408 4.813 3.447 6.43 5.926l72.602 111.457c13.077 20.070 18.854 44.023 16.367 67.846s-13.086 46.067-30.025 63.004zM871.876 594.141l-71.407-109.619-71.407 109.619c-21.858 33.554-17.169 78.458 11.145 106.775 7.915 7.914 17.31 14.191 27.648 18.474 10.342 4.283 21.423 6.487 32.614 6.487s22.272-2.205 32.614-6.487c10.338-4.283 19.733-10.56 27.648-18.474 28.314-28.317 33.003-73.221 11.145-106.775zM621.892 324.019c-26.031-15.428-59.533-24.23-106.261-21.419-38.98 2.347-74.039-11.025-111.513-36.382-35.695-24.149-72.857-58.645-117.178-99.793-2.483-2.304-4.989-4.634-7.517-6.976l-10.88 11.725c2.673 2.483 5.324 4.941 7.954 7.386 43.88 40.738 81.903 76.045 118.658 100.911 39.176 26.505 77.713 41.728 121.437 39.1 44.105-2.658 74.317 5.679 97.143 19.213 23.006 13.636 39.228 32.943 54.839 53.722 2.594 3.452 5.171 6.95 7.761 10.466 28.245 38.357 57.877 78.583 126.246 81.446l0.67-15.983c-60.463-2.53-85.722-36.685-114.21-75.209-2.522-3.418-5.073-6.865-7.676-10.33-15.825-21.065-33.613-42.547-59.473-57.877z" />
<glyph unicode="&#xe929;" glyph-name="contact" d="M267.597 524.668c-43.109 0-78.222-33.668-78.222-74.999v-203.337c0-41.331 35.113-74.999 78.222-74.999s78.222 33.668 78.222 74.999v203.337c0 41.331-35.113 74.999-78.222 74.999zM173.023 449.668c0 7.164 1.043 14.165 2.26 20.996-31.462-9.664-54.408-37.666-54.408-70.997v-103.334c0-33.331 22.945-61.333 54.408-71.002-1.216 6.835-2.26 13.837-2.26 21.001v203.337zM752.73 524.668c-43.106 0-78.221-33.668-78.221-74.999v-203.337c0-41.331 35.115-74.999 78.221-74.999 7.825 0 15.3 1.502 22.426 3.503-9.732-30.835-39.283-53.5-74.573-53.5h-83.089c-10.778 28.996-39.458 49.997-73.353 49.997-43.11 0-78.225-33.664-78.225-74.999 0-41.331 35.115-74.999 78.225-74.999 33.894 0 62.575 21.001 73.353 50.001h83.089c71.966 0 130.372 56 130.372 125.001v253.333c0 41.331-35.115 74.999-78.225 74.999zM848.708 470.665c1.216-6.831 2.261-13.833 2.261-20.996v-203.337c0-7.164-1.045-14.165-2.261-21.001 31.462 9.668 54.409 37.67 54.409 71.002v103.334c0 33.331-22.946 61.333-54.409 70.997zM511.987 874.667c-215.721 0-391.112-168.167-391.112-375.002v-0.666c15.471 11.332 33.548 19.499 53.365 23.168 12.168 168.666 158.878 302.499 337.747 302.499 178.867 0 325.577-133.833 337.745-302.333 19.814-3.665 37.722-12.002 53.363-23.168v0.499c0 206.835-175.39 375.002-391.108 375.002z" />
<glyph unicode="&#xe92a;" glyph-name="no-data-calendar" d="M832 803.942h-128v68.267h-64v-64h-256v64h-64v-64h-128c-17.067 0-34.133-8.533-46.933-17.067s-17.067-34.133-17.067-46.933v-639.999c0-17.067 8.533-34.133 17.067-46.933 12.8-12.8 29.867-17.067 46.933-17.067h640c17.067 0 34.133 8.533 46.933 17.067 12.8 12.8 17.067 29.867 17.067 46.933v639.999c0 17.067-8.533 34.133-17.067 46.933-12.8 8.533-29.867 12.8-46.933 12.8zM192 744.208h128v-64h64v64h256v-64h64v64h128v-128h-640v128zM192 547.942h162.133v-191.999h-162.133v191.999zM605.867 104.209h-187.733v192h192v-192h-4.267zM605.867 360.209h-187.733v187.732h192v-187.732h-4.267zM674.133 104.209v192h162.133v-192h-162.133zM674.133 547.942h162.133v-191.999h-162.133zM192 291.942h162.133v-192h-162.133zM576 437.035h-128v34.133h128v-34.133zM814.916 181.035h-128v34.133h128v-34.133zM337.083 437.035h-128v34.133h128v-34.133zM729.6 437.035l76.8 76.8 17.067-17.067-93.867-93.867-46.933 42.667 17.067 17.067 29.867-25.6zM247.475 181.035l76.8 76.8 17.067-21.333-93.867-93.867-46.933 46.933 17.067 17.067 29.867-25.6zM490.684 181.035l76.8 76.8 17.067-17.067-93.867-93.867-46.933 46.933 17.067 17.067 29.867-29.867z" />
<glyph unicode="&#xe92b;" glyph-name="config" d="M397.183 874.667h229.633v-124.77l21.056-10.527 90.927 90.927 155.499-155.497-90.927-90.927 10.526-21.055h124.77v-229.633h-124.77l-10.526-21.056 90.927-90.927-155.499-155.499-90.927 90.927-21.056-10.526v-124.77h-229.633v124.77l-21.055 10.526-90.927-90.927-155.497 155.499 90.927 90.927-10.527 21.056h-124.77v229.633h124.77l10.527 21.055-90.927 90.927 155.497 155.497 90.927-90.927 21.055 10.527v124.77zM456.717 815.132v-102.030l-92.344-46.173-79.172 79.172-71.302-71.302 79.172-79.172-46.173-92.344h-102.030v-110.566h102.030l46.173-92.343-79.172-79.172 71.302-71.305 79.172 79.172 92.344-46.17v-102.033h110.566v102.033l92.343 46.17 79.172-79.172 71.305 71.305-79.172 79.172 46.17 92.343h102.033v110.566h-102.033l-46.17 92.344 79.172 79.172-71.305 71.302-79.172-79.172-92.343 46.173v102.030h-110.566zM512 531.631c-46.187 0-83.631-37.444-83.631-83.631 0-46.191 37.444-83.631 83.631-83.631 46.191 0 83.631 37.44 83.631 83.631 0 46.187-37.44 83.631-83.631 83.631zM368.833 448c0 79.070 64.097 143.167 143.167 143.167s143.168-64.097 143.168-143.167c0-79.070-64.098-143.168-143.168-143.168s-143.167 64.098-143.167 143.168z" />
<glyph unicode="&#xe92c;" glyph-name="dropdown" d="M768 576l-256-320-256 320h512z" />
<glyph unicode="&#xe92d;" glyph-name="dot-vertical" d="M512 640c35.345 0 64 28.654 64 64s-28.655 64-64 64c-35.345 0-64-28.654-64-64s28.655-64 64-64zM512 384c35.345 0 64 28.655 64 64s-28.655 64-64 64c-35.345 0-64-28.655-64-64s28.655-64 64-64zM512 128c35.345 0 64 28.655 64 64s-28.655 64-64 64c-35.345 0-64-28.655-64-64s28.655-64 64-64z" />
<glyph unicode="&#xe92e;" glyph-name="premium" d="M689.762 613.769h-135.684l-42.121 122.231-42.121-122.231h-135.628l109.755-75.539-42.122-122.23 109.753 75.537 109.756-75.537-42.121 122.23 110.532 75.539zM406.595 597.464h-2.287c-0.798 0-1.563 0.3-2.127 0.835s-0.881 1.26-0.881 2.016c0 0.756 0.317 1.481 0.881 2.015s1.329 0.835 2.127 0.835h2.287c0.798 0 1.564-0.301 2.128-0.835s0.881-1.259 0.881-2.015c0.008-0.379-0.064-0.756-0.212-1.109s-0.368-0.673-0.648-0.943c-0.28-0.271-0.615-0.487-0.984-0.634s-0.765-0.222-1.166-0.222v0.057zM466.287 596.153l-47.597 0.684c-0.803 0.015-1.568 0.328-2.131 0.871s-0.878 1.275-0.878 2.036c0.083 0.733 0.436 1.415 0.998 1.926s1.295 0.818 2.071 0.868l47.657-0.684c0.798 0 1.562-0.301 2.129-0.835 0.563-0.535 0.879-1.259 0.879-2.015s-0.316-1.482-0.879-2.016c-0.567-0.534-1.331-0.834-2.129-0.834h-0.119zM506.121 665.534l-14.14-45.608c-0.201-0.583-0.585-1.093-1.101-1.46s-1.143-0.575-1.788-0.593h-0.845c-0.764 0.212-1.412 0.704-1.796 1.366s-0.474 1.443-0.247 2.169l14.14 45.608c0.222 0.756 0.755 1.398 1.476 1.783s1.574 0.482 2.372 0.27c0.798-0.212 1.476-0.715 1.882-1.399s0.512-1.493 0.286-2.249l-0.239 0.113zM768 832v-728l-256 129.28-28.8-14.4-227.2-114.88v728h512zM768 896h-512c-16.974 0-33.253-6.743-45.255-18.745s-18.745-28.281-18.745-45.255v-832l320 160 320-160v832c0 16.974-6.741 33.253-18.743 45.255s-28.284 18.745-45.257 18.745z" />
<glyph unicode="&#xe92f;" glyph-name="exit-door" d="M375.475 360.778c13.58 0 26.603 5.516 36.205 15.337 9.602 9.816 14.996 23.138 14.996 37.022 0 13.889-5.394 27.206-14.996 37.027s-22.626 15.337-36.205 15.337c-13.58 0-26.603-5.516-36.205-15.337s-14.996-23.138-14.996-37.027c0-13.885 5.394-27.206 14.996-37.022 9.602-9.821 22.626-15.337 36.205-15.337zM546.155 901.833c-0.005 5.032-1.066 10.003-3.123 14.575s-5.055 8.634-8.788 11.909c-3.738 3.276-8.122 5.687-12.851 7.068s-9.7 1.701-14.559 0.936l-477.887-74.702c-8.057-1.267-15.405-5.441-20.714-11.767s-8.229-14.386-8.232-22.722v-758.192c0.003-8.336 2.923-16.398 8.232-22.723s12.657-10.496 20.714-11.767l477.887-74.771c4.859-0.763 9.83-0.447 14.559 0.936s9.114 3.793 12.851 7.070c3.733 3.277 6.73 7.336 8.788 11.911 2.057 4.571 3.119 9.542 3.123 14.573v453.869h353.089l-68.063-61.021c-6.409-6.2-10.217-14.699-10.631-23.71s2.597-17.836 8.406-24.627c5.809-6.791 13.964-11.013 22.751-11.79s17.534 1.955 24.394 7.629l136.262 122.173c3.658 3.277 6.586 7.317 8.592 11.841 2.006 4.528 3.044 9.441 3.044 14.411s-1.038 9.883-3.044 14.41c-2.006 4.527-4.934 8.563-8.592 11.84l-136.262 122.177c-6.81 6.091-15.704 9.168-24.73 8.553-9.030-0.615-17.445-4.872-23.403-11.834s-8.965-16.059-8.364-25.29c0.605-9.23 4.766-17.839 11.576-23.93l68.063-61.019h-353.089v383.983zM477.887 861.201v-826.473l-409.618 64.233v698.22l409.618 64.020zM648.588 29.151h-34.132v349.077h68.268v-314.168c0-9.258-3.598-18.139-9.998-24.683-6.4-6.549-15.085-10.226-24.138-10.226zM614.456 587.649v279.26h34.132c9.053 0 17.738-3.678 24.138-10.224s9.998-15.425 9.998-24.684v-244.352h-68.268z" />
<glyph unicode="&#xe930;" glyph-name="eye-on" d="M1000.734 448.213c-37.636 97.355-102.976 181.548-187.942 242.173s-185.835 95.024-290.138 98.947c-104.304-3.922-205.172-38.322-290.138-98.947s-150.305-144.818-187.942-242.173c-2.542-7.031-2.542-14.729 0-21.76 37.637-97.357 102.976-181.547 187.942-242.172s185.834-95.027 290.138-98.948c104.303 3.921 205.171 38.323 290.138 98.948s150.306 144.815 187.942 242.172c2.543 7.031 2.543 14.729 0 21.76zM522.654 149.333c-169.601 0-348.801 125.76-413.761 288 64.96 162.24 244.16 288 413.761 288s348.8-125.76 413.76-288c-64.96-162.24-244.16-288-413.76-288zM522.667 629.333c-37.973 0-75.093-11.261-106.669-32.358s-56.183-51.084-70.716-86.166c-14.532-35.085-18.334-73.69-10.926-110.933s25.695-71.454 52.546-98.308c26.852-26.85 61.064-45.137 98.307-52.544 37.244-7.411 75.849-3.61 110.933 10.923 35.081 14.532 65.067 39.142 86.165 70.716 21.099 31.578 32.358 68.698 32.358 106.671 0 50.923-20.228 99.758-56.235 135.764s-84.843 56.236-135.765 56.236zM522.667 309.333c-25.314 0-50.065 7.505-71.113 21.572-21.052 14.063-37.456 34.057-47.144 57.446-9.688 23.386-12.223 49.122-7.284 73.954 4.939 24.828 17.129 47.637 35.031 65.536 17.899 17.902 40.708 30.093 65.536 35.032 24.832 4.939 50.569 2.404 73.958-7.284 23.386-9.688 43.379-26.092 57.442-47.144 14.067-21.047 21.572-45.798 21.572-71.113 0-33.946-13.487-66.505-37.491-90.509s-56.559-37.491-90.509-37.491z" />
<glyph unicode="&#xe931;" glyph-name="diffusion" d="M832.009 768v-69.44l-651.52-118.4c-14.909-2.726-28.367-10.655-37.978-22.375s-14.749-26.47-14.502-41.625v-138.88c-0.247-15.155 4.892-29.905 14.502-41.626s23.068-19.648 37.978-22.374l75.52-11.2v-110.080c0-16.973 6.743-33.254 18.745-45.257s28.281-18.743 45.255-18.743h256c16.973 0 33.254 6.741 45.257 18.743s18.743 28.284 18.743 45.257v40.32l192-34.88v-69.44h64v640h-64zM576.009 192h-256v98.24l256-46.4v-51.84zM192.009 378.56v138.88l640 116.16v-371.2l-640 116.16z" />
<glyph unicode="&#xe932;" glyph-name="history" d="M512 0c-88.606 0-175.222 26.274-248.895 75.503-73.673 49.225-131.095 119.194-165.003 201.054s-42.78 171.938-25.494 258.843c17.286 86.903 59.954 166.73 122.608 229.384s142.48 105.322 229.384 122.608c86.905 17.286 176.983 8.414 258.843-25.494s151.829-91.329 201.054-165.003c49.229-73.673 75.503-160.289 75.503-248.895 0-118.818-47.198-232.768-131.217-316.783-84.015-84.019-197.965-131.217-316.783-131.217zM512 832c-75.947 0-150.19-22.522-213.339-64.716s-112.367-102.167-141.431-172.334c-29.064-70.167-36.669-147.377-21.852-221.865s51.389-142.912 105.092-196.617c53.704-53.7 122.126-90.274 196.615-105.092 74.487-14.814 151.697-7.211 221.867 21.854 70.165 29.065 130.138 78.281 172.331 141.431 42.197 63.147 64.717 137.391 64.717 213.338 0 101.843-40.457 199.515-112.469 271.529-72.017 72.014-169.685 112.471-271.531 112.471v0zM658.88 256l-178.88 178.88v301.12h64v-274.56l160-160.32-45.12-45.12z" />
<glyph unicode="&#xe933;" glyph-name="alarm-out" d="M512 64c-69.619 0-137.675 20.642-195.561 59.324-57.886 38.677-103.003 93.653-129.645 157.973-26.642 64.316-33.613 135.091-20.031 203.375 13.582 68.281 47.107 131.001 96.335 180.23s111.949 82.753 180.23 96.335c68.284 13.582 139.059 6.612 203.375-20.031 64.32-26.642 119.296-71.759 157.973-129.645 38.682-57.886 59.324-125.941 59.324-195.561 0-93.355-37.086-182.891-103.1-248.9-66.010-66.014-155.546-103.1-248.9-103.1zM512 704c-56.96 0-112.643-16.891-160.004-48.537s-84.275-76.625-106.073-129.251c-21.798-52.625-27.502-110.532-16.389-166.4 11.113-55.863 38.542-107.183 78.819-147.46s91.594-67.708 147.459-78.818c55.868-11.115 113.775-5.41 166.4 16.388s97.604 58.714 129.25 106.074c31.646 47.36 48.538 103.044 48.538 160.004 0 76.382-30.345 149.636-84.352 203.647-54.012 54.010-127.266 84.353-203.648 84.353zM429.12 576l114.88-114.88v-205.12h-64v178.56l-96 96.32 45.12 45.12zM242.601 831.883l-114.601-114.841 45.302-45.207 114.601 114.841-45.302 45.207zM781.261 832.166l-45.303-45.207 114.603-114.841 45.299 45.207-114.598 114.841z" />
<glyph unicode="&#xe934;" glyph-name="documents" d="M633.613 507.785l-164.501 164.499c-4.698 4.7-9.399 7.050-16.448 7.050h-234.997c-25.85 0-46.999-21.15-46.999-46.999v-563.995c0-25.847 21.15-46.997 46.999-46.997h375.994c25.852 0 47.002 21.15 47.002 46.997v422.997c0 7.049-2.351 11.75-7.049 16.448zM452.663 622.934l131.597-131.598h-131.597v131.598zM593.66 68.339h-375.994v563.995h187.998v-140.998c0-25.852 21.148-47.002 46.999-47.002h140.996v-375.996zM546.662 209.331h-281.996v-46.997h281.996v46.997zM546.662 350.332h-281.996v-46.997h281.996v46.997zM746.411 761.583h-411.244v-41.125h411.244v41.125zM746.415 638.208h-205.623l41.126-41.125h164.497v41.125zM664.166 514.833h82.249v-41.122h-82.249v41.122zM664.166 391.458h82.249v-41.126h-82.249v41.126zM664.166 268.083h82.249v-41.126h-82.249v41.126zM222.083 835.599c0 21.577 17.491 39.068 39.068 39.068h559.294c21.577 0 39.066-17.492 39.066-39.068v-723.791c0-21.577-17.489-39.070-39.066-39.070h-115.149v55.262h95.518v689.363h-523.471v-96.913h-55.26v115.149z" />
<glyph unicode="&#xe935;" glyph-name="menu" d="M875.951 661.333h-684.963c-34.63 0-62.988 19.025-62.988 42.667 0 23.457 28.086 42.667 62.988 42.667h684.689c34.633 0 62.989-19.025 62.989-42.667 0-23.457-28.087-42.667-62.716-42.667zM864.533 408.585h-684.962c-34.63 0-62.988 19.025-62.988 42.667 0 23.458 28.086 42.667 62.988 42.667h684.689c34.633 0 62.989-19.025 62.989-42.667 0-23.458-28.083-42.667-62.716-42.667zM864.533 152.585h-684.962c-34.63 0-62.988 19.025-62.988 42.667 0 23.458 28.086 42.667 62.988 42.667h684.689c34.633 0 62.989-19.025 62.989-42.667 0-23.458-28.083-42.667-62.716-42.667z" />
<glyph unicode="&#xe936;" glyph-name="klock-face" d="M511.066 153.429h-281.239c-32.551 0-49.908 15.979-52.361 48.375-0.528 6.814-0.46 13.628-0.34 20.442 0.341 19.857 11.685 33.041 28.156 41.271 28.156 14.033 55.222 30.046 83.191 44.284 12.928 6.626 26.691 10.918 40.71 14.566 20.312 5.291 39.706 13.632 57.521 24.73 9.454 5.879 11.583 22.69 3.832 30.763-3.73 3.883-7.818 7.411-11.565 11.26-7.256 7.497-7.767 16.149-1.516 22.639 5.894 6.080 15.057 6.404 22.143 0 16.284-14.942 32.364-30.084 45.155-48.324 5.521-8.243 11.678-16.038 18.415-23.322 3.085-3.332 6.835-5.986 11.004-7.791 4.173-1.809 8.67-2.726 13.214-2.701 16.422-0.137 32.858 0 49.28 0 14.306 0 23.846 8.162 31.424 18.893 15.467 21.803 32.367 42.189 52.599 59.853 2.372 2.415 5.047 4.518 7.957 6.251 6.81 3.409 13.385 2.453 18.445-3.405 5.060-5.862 5.231-12.484 0.7-18.739-2.295-3.255-5.090-6.127-8.277-8.516-8.823-6.336-11.311-14.75-10.223-25.156 0.461-4.685 1.839-7.77 5.914-10.321 16.913-10.633 34.645-19.725 54.046-24.239 29.705-6.916 56.073-20.937 82.287-35.669 12.092-6.814 24.239-13.628 36.723-19.588 33.37-16.132 41.459-29.943 38.396-67.145-2.658-32.363-19.844-48.273-52.514-48.273l-283.076-0.137zM427.14 334.374c-1.703-0.393-1.295-1.702-1.312-2.778 0-10.765 0.188-21.53-0.238-32.363-0.010-3.878-1.519-7.603-4.21-10.398-2.692-2.79-6.359-4.437-10.234-4.591-7.682-0.324-13.831 4.548-15.449 12.791-0.817 4.139-0.783 8.516-1.192 12.638-0.204 1.946-0.137 4.041-3.117 4.058-5.553 0-14.683-8.179-14.887-13.815-0.647-17.545-1.499-35.157 1.839-52.514 4.020-20.932 11.412-40.269 28.139-54.831 5.833-5.41 13.542-8.341 21.498-8.175 54.080 0.29 108.194 0.768 162.274-0.239 15.825-0.29 26.453 5.841 35.635 17.033 6.733 8.418 11.878 17.988 15.194 28.241 7.258 21.376 6.677 43.383 6.814 65.51 0 9.899-4.565 14.191-12.386 17.647-4.663 2.061-6.063 0.649-6.251-4.002 0.013-4.527-0.478-9.041-1.463-13.457-0.674-2.543-2.014-4.864-3.883-6.72s-4.194-3.179-6.746-3.84c-2.547-0.657-5.227-0.627-7.757 0.094-2.534 0.717-4.83 2.095-6.656 3.994-3.883 3.917-4.732 8.806-4.681 14.089 0 10.475 0 20.949 0 32.533-0.93-0.687-1.818-1.425-2.658-2.214-1.263-1.536-2.487-3.085-3.678-4.668-12.881-17.033-28.958-28.19-51.102-29.76-12.74-0.9-25.549 0-38.187-0.747-30.916-1.856-56.213 7.97-73.655 34.628-0.478 0.678-1.033 1.301-1.651 1.856zM371.203 185.165c-3.543 5.841-6.609 10.219-9.011 14.955-13.626 26.654-18.072 55.168-17.289 84.809 0.256 9.485-0.187 9.553-9.573 7.219-14.571-3.657-28.609-9.182-41.766-16.435-20.866-11.413-41.306-23.846-62.921-33.626-17.033-7.697-25.090-17.745-22.688-37.065 1.891-15.108 5.451-20.233 20.781-20.25 44.468 0 88.948 0 133.439 0 2.453 0 4.974 0.205 9.028 0.393zM652.493 184.721h133.436c28.143 0 29.146 1.617 30.101 29.619 0.405 11.925-4.719 18.261-14.362 23.219-16.367 8.397-32.567 17.135-48.764 25.873-20.902 11.29-41.323 23.642-64.934 28.954-5.107 1.143-9.297 2.334-9.007-5.807 1.225-35.84-4.838-69.905-26.522-101.858h0.051zM511.757 444.011h-367.919c-3.676-0.124-7.356-0.026-11.020 0.29-3.548 0.452-6.82 2.15-9.229 4.796s-3.799 6.059-3.92 9.634c-0.047 3.716 1.277 7.322 3.718 10.129 2.441 2.803 5.828 4.612 9.517 5.082 3.104 0.26 6.221 0.333 9.334 0.222h192.034c2.265 0 4.531-0.102 6.813 0 2.674 0.171 6.047-0.853 6.967 3.081s-1.703 5.606-4.65 7.138c-12.051 6.374-22.611 15.232-30.984 25.993-20.287 25.737-22.501 55.018-15.602 85.388 3.815 16.88 15.517 24.783 32.482 23.676 6.813-0.443 7.358 2.283 7.546 7.597 0.664 19.776 0.375 39.636 4.787 59.105 6.915 30.541 24.221 54.217 49.55 71.66 43.095 29.655 91.42 39.466 143.081 34.663 34.953-3.253 67.674-13.371 96.832-33.437 35.669-24.528 53.999-58.464 54.985-101.808 0.256-10.765 0.887-21.496 1.297-32.244 0.137-3.407 0.593-5.911 5.261-5.621 26.914 1.703 35.345-15.075 37.355-36.349 4.087-43.145-10.662-77.212-49.719-98.793-2.965-1.702-5.402-3.695-4.087-7.36 1.446-3.985 5.261-2.62 8.141-2.637 65.715-0.068 131.422-0.068 197.129 0 3.409 0.132 6.822 0.038 10.219-0.29 3.533-0.555 6.758-2.338 9.105-5.035 2.347-2.701 3.665-6.14 3.721-9.719-0.038-3.575-1.348-7.019-3.691-9.719s-5.568-4.484-9.101-5.030c-3.661-0.375-7.343-0.495-11.021-0.358l-368.926-0.051zM512.047 474.18c40.759 0 81.54 0.201 122.3-0.171 8.090 0 10.219 2.62 9.894 10.219-0.457 14.972-1.156 30.012 1.993 44.847 9.395 44.357 12.156 89.86 8.196 135.025-2.351 27.253-14.191 49.090-35.772 65.731-21.171 16.318-45.598 24.937-71.539 29.451-46.161 8.040-90.278 2.248-131.156-21.649-25.789-15.126-42.413-37.473-45.854-67.776-3.597-32.374-3.454-65.055 0.426-97.396 3.407-29.417 12.043-58.323 9.215-88.369-0.733-7.885 2.112-10.219 9.964-10.116 40.776 0.393 81.556 0.119 122.333 0.119v0.085zM347.778 519.625c-1.822 10.731-3.543 20.166-5.007 29.654-1.704 10.612-3.1 21.241-4.565 31.887-0.63 4.616-4.122 5.723-7.801 6.524-2.828 0.63-4.275-1.073-4.667-3.628-3.441-23.097-2.214-46.484 22.041-64.436zM676.164 519.625c24.205 18.735 24.866 40.351 22.144 64.436-0.427 3.832-2.675 4.395-6.033 3.509-1.941-0.372-3.695-1.408-4.954-2.931-1.263-1.523-1.954-3.438-1.958-5.415-1.809-19.691-5.743-38.989-9.25-59.684l0.051 0.085zM907.571 765.074c-2.483 0.004-4.864 0.993-6.622 2.749-1.754 1.756-2.743 4.136-2.748 6.619v81.487h-79.002c-2.483 0-4.864 0.987-6.622 2.744s-2.743 4.14-2.743 6.624c0 2.484 0.986 4.867 2.743 6.624s4.139 2.744 6.622 2.744h88.405c2.483 0 4.868-0.987 6.622-2.744 1.758-1.757 2.748-4.14 2.748-6.624v-90.856c0-1.233-0.247-2.454-0.717-3.593-0.474-1.139-1.169-2.173-2.039-3.043-0.875-0.87-1.911-1.56-3.051-2.029-1.143-0.469-2.364-0.708-3.597-0.703zM908.015 21.342h-90.854c-2.483 0-4.868 0.99-6.626 2.743-1.758 1.758-2.743 4.143-2.743 6.626s0.986 4.868 2.743 6.626c1.758 1.754 4.143 2.743 6.626 2.743h81.485v79.049c0 2.487 0.99 4.868 2.748 6.626 1.754 1.758 4.139 2.743 6.622 2.743 2.487 0 4.868-0.986 6.626-2.743s2.743-4.139 2.743-6.626v-88.418c-0.004-2.483-0.994-4.864-2.748-6.618-1.758-1.758-4.139-2.748-6.622-2.752v0zM116.41 765.074c-2.484 0-4.867 0.987-6.624 2.744s-2.744 4.14-2.744 6.624v90.856c0 2.484 0.987 4.867 2.744 6.624s4.14 2.744 6.624 2.744h88.42c2.484 0 4.867-0.987 6.624-2.744s2.744-4.14 2.744-6.624c0-2.484-0.987-4.868-2.744-6.624s-4.14-2.744-6.624-2.744h-79.052v-81.487c0-2.485-0.987-4.867-2.744-6.624s-4.14-2.744-6.624-2.744v0zM206.849 21.342h-90.856c-2.484 0-4.867 0.99-6.624 2.743-1.757 1.758-2.744 4.143-2.744 6.626v88.418c0 2.487 0.987 4.868 2.744 6.626s4.14 2.743 6.624 2.743c2.485 0 4.868-0.986 6.625-2.743s2.743-4.139 2.743-6.626v-79.049h81.488c2.484 0 4.867-0.99 6.624-2.743 1.757-1.758 2.744-4.143 2.744-6.626s-0.987-4.868-2.744-6.626c-1.757-1.754-4.14-2.743-6.624-2.743z" />
<glyph unicode="&#xe937;" glyph-name="left" d="M320 448l320 320 44.8-44.8-275.2-275.2 275.2-275.2-44.8-44.8-320 320z" />
<glyph unicode="&#xe938;" glyph-name="report" d="M822.4 662.4l-224 224c-6.4 6.4-12.8 9.6-22.4 9.6h-320c-35.2 0-64-28.8-64-64v-768c0-35.2 28.8-64 64-64h512c35.2 0 64 28.8 64 64v576c0 9.6-3.2 16-9.6 22.4zM576 819.2l179.2-179.2h-179.2v179.2zM768 64h-512v768h256v-192c0-35.2 28.8-64 64-64h192v-512zM704 256h-384v-64h384v64zM704 448h-384v-64h384v64z" />
<glyph unicode="&#xe939;" glyph-name="home" d="M886.507 514.21l-328.137 344.919c-4.395 4.737-9.694 8.551-15.59 11.219-5.892 2.668-12.267 4.136-18.739 4.318-12.779-0.497-24.96-5.536-34.33-14.205l-351.317-345.808c-9.103-9.25-14.222-21.675-14.266-34.624v-409.289c-0.059-6.413 1.152-12.774 3.562-18.718 2.41-5.948 5.974-11.366 10.486-15.94s9.886-8.222 15.814-10.731c5.928-2.505 12.294-3.827 18.734-3.883h203.301c16.942 0 32.1-3.998 31.208 31.518v281.882h203.302l6.242-282.773c0.222-7.932 3.49-15.484 9.126-21.094 5.636-5.615 13.218-8.866 21.188-9.088h204.194c12.928 0.115 25.289 5.312 34.389 14.455 9.101 9.148 14.208 21.5 14.208 34.372v409.732c0.102 12.548-4.693 24.644-13.376 33.737zM837.466 84.058h-158.72l-6.686 282.773c-0.060 4.023-0.913 7.996-2.513 11.691-1.6 3.691-3.913 7.036-6.814 9.839-2.897 2.803-6.319 5.009-10.074 6.498-3.759 1.485-7.77 2.219-11.81 2.159h-264.825c-8.277 0-16.215-3.273-22.068-9.101s-9.14-13.73-9.14-21.973v-282.33h-158.272v391.087l336.161 332.047 314.761-331.604v-391.087zM318.208 81.626h428.535v-60.295h-428.535v60.295z" />
<glyph unicode="&#xe93a;" glyph-name="history-arrow" d="M512 896c-59.682-0.009-118.755-11.993-173.721-35.244s-104.708-57.295-146.279-100.116v135.36h-64v-256h256v64h-157.44c60.033 66.711 141.536 110.287 230.353 123.162 88.815 12.874 179.337-5.767 255.842-52.686s134.157-119.152 162.948-204.154c28.791-85.001 26.897-177.404-5.346-261.154-32.243-83.755-92.804-153.566-171.166-197.316s-169.566-58.671-257.783-42.172c-88.216 16.495-167.867 63.373-225.12 132.484s-88.491 156.092-88.288 245.837h-64c0-88.606 26.275-175.223 75.502-248.896s119.195-131.093 201.056-165.001c81.862-33.911 171.937-42.782 258.841-25.493 86.903 17.284 166.733 59.951 229.385 122.607 62.656 62.652 105.323 142.481 122.607 229.385 17.289 86.903 8.418 176.979-25.493 258.841-33.907 81.861-91.328 151.829-165.001 201.056s-160.29 75.502-248.896 75.502v0zM658.88 256l-178.88 178.88v301.12h64v-274.56l160-160.32-45.12-45.12z" />
<glyph unicode="&#xe93b;" glyph-name="alarm-in" d="M512 64c-69.619 0-137.675 20.642-195.561 59.324-57.886 38.677-103.003 93.653-129.645 157.973-26.642 64.316-33.613 135.091-20.031 203.375 13.582 68.281 47.107 131.001 96.335 180.23s111.949 82.753 180.23 96.335c68.284 13.582 139.059 6.612 203.375-20.031 64.32-26.642 119.296-71.759 157.973-129.645 38.682-57.886 59.324-125.941 59.324-195.561 0-93.355-37.086-182.891-103.1-248.9-66.010-66.014-155.546-103.1-248.9-103.1zM512 704c-56.96 0-112.643-16.891-160.004-48.537s-84.275-76.625-106.073-129.251c-21.798-52.625-27.502-110.532-16.389-166.4 11.113-55.863 38.542-107.183 78.819-147.46s91.594-67.708 147.459-78.818c55.868-11.115 113.775-5.41 166.4 16.388s97.604 58.714 129.25 106.074c31.646 47.36 48.538 103.044 48.538 160.004 0 76.382-30.345 149.636-84.352 203.647-54.012 54.010-127.266 84.353-203.648 84.353zM594.88 288l-114.88 114.88v205.12h64v-178.56l96-96.32-45.12-45.12zM242.601 831.883l-114.601-114.841 45.302-45.207 114.601 114.841-45.302 45.207zM781.261 832.166l-45.303-45.207 114.603-114.841 45.299 45.207-114.598 114.841z" />
<glyph unicode="&#xe93c;" glyph-name="arrow-down" d="M786.88 429.12l-242.88-242.56v645.44h-64v-645.44l-242.88 242.56-45.12-45.12 320-320 320 320-45.12 45.12z" />
<glyph unicode="&#xe93d;" glyph-name="upload-document" d="M486.961 120.32h-307.201v737.28h245.761v-184.32c0-32.768 28.672-61.44 61.44-61.44h184.32v-102.4c24.576-8.192 45.056-8.192 61.44-20.48v184.32c0 8.192-4.096 16.384-8.192 20.48l-212.992 212.992c-8.192 8.192-16.384 12.288-24.576 12.288h-307.201c-32.768 0-61.44-28.672-61.44-61.44v-737.28c0-32.768 28.672-61.44 61.44-61.44h430.081c-40.96 20.48-118.784 40.96-122.88 61.44zM486.961 845.312l172.032-172.032h-172.032v172.032zM614.4 38.4c135.168 0 245.76 110.592 245.76 245.76s-110.592 245.76-245.76 245.76c-135.168 0-245.76-110.592-245.76-245.76s110.592-245.76 245.76-245.76zM614.4 468.48c102.4 0 184.32-81.92 184.32-184.32s-81.92-184.32-184.32-184.32c-102.4 0-184.32 81.92-184.32 184.32s81.92 184.32 184.32 184.32zM458.76 271.872l45.056-45.056 77.824 77.824v-204.8h61.44v208.896l77.824-77.824 45.056 45.056-151.552 151.552-155.648-155.648zM409.6 325.12h-163.84v-61.44h163.84c-4.096 20.48-4.096 40.96 0 61.44zM532.48 509.44h-286.72v-61.44h204.8c16.384 24.576 49.152 49.152 81.92 61.44z" />
<glyph unicode="&#xe93e;" glyph-name="in" d="M416.008 608v-128h-352.058v-64l350.92-0.773 1.138-127.227 175.997 160-175.997 160zM272.95 212.168c49.145-63.15 116.793-109.373 193.489-132.209 76.696-22.83 158.61-21.13 234.294 4.864s141.353 74.982 187.837 140.119c46.484 65.137 71.455 143.171 71.429 223.193s-25.057 158.038-71.583 223.143c-46.531 65.105-112.236 114.047-187.94 139.987-75.699 25.94-157.614 27.582-234.296 4.697s-144.296-69.155-193.397-132.343l50.561-39.289c40.914 52.652 97.254 91.206 161.148 110.275s132.149 17.701 195.228-3.914c63.078-21.615 117.827-62.396 156.6-116.645 38.769-54.248 59.622-119.255 59.648-185.934 0.020-66.677-20.787-131.701-59.52-185.973-38.733-54.277-93.45-95.099-156.513-116.756-63.068-21.658-131.318-23.076-195.228-4.050-63.907 19.026-120.275 57.539-161.225 110.162l-50.533-39.327z" />
<glyph unicode="&#xe93f;" glyph-name="csv" d="M192 208c0-43.998 28.72-80 64-80 7.722 0.175 15.328 1.916 22.356 5.12s13.33 7.804 18.525 13.521c5.895 6.003 13.919 9.446 22.333 9.574 8.414 0.132 16.541-3.055 22.622-8.87 6.080-5.82 9.625-13.798 9.865-22.208 0.24-8.414-2.842-16.58-8.581-22.737-11.142-11.994-24.617-21.585-39.597-28.19s-31.152-10.078-47.523-10.21c-70.6 0-128 64.602-128 144s57.4 144 128 144c16.371-0.132 32.542-3.605 47.523-10.21s28.455-16.196 39.597-28.19c5.739-6.157 8.821-14.323 8.581-22.737-0.24-8.41-3.785-16.388-9.865-22.204-6.081-5.82-14.208-9.007-22.622-8.875-8.414 0.128-16.438 3.571-22.333 9.574-5.195 5.717-11.497 10.317-18.525 13.521s-14.634 4.945-22.356 5.12c-35.28 0-64-35.998-64-80zM510.4 242.761c-16 4.638-32.559 9.399-41.801 15.36-5.001 3.238-4.919 3.998-4.48 7.599 0.068 2.906 0.832 5.756 2.223 8.307 1.391 2.556 3.371 4.74 5.777 6.374 18.402 12.48 61.359 6.921 79.279 2.24 8.213-2.202 16.96-1.050 24.324 3.2s12.736 11.247 14.938 19.46c2.202 8.209 1.050 16.96-3.2 24.32-4.25 7.364-11.251 12.736-19.46 14.938-8.478 2.202-83.998 20.881-131.358-11.038-10.017-6.724-18.433-15.565-24.654-25.899-6.221-10.33-10.095-21.905-11.348-33.903-8-63.518 54.601-81.638 92.002-92.437 48.239-13.961 52.476-19.682 51.119-30.362-1.242-9.638-5.039-13.359-8.559-15.718-18.402-12.241-60.681-6.242-78.204-1.442-8.188 2.287-16.951 1.225-24.358-2.948-7.408-4.177-12.854-11.123-15.14-19.311-2.287-8.192-1.225-16.951 2.949-24.363 4.175-7.407 11.12-12.851 19.312-15.138 19.84-5.197 40.252-7.885 60.757-8 23.283 0 49.203 4.002 69.961 17.839 10.249 6.81 18.859 15.804 25.216 26.338 6.353 10.534 10.3 22.345 11.546 34.581 8.759 69.244-57.28 88.563-96.841 100.002zM842.761 350.118c-3.959 1.417-8.158 2.044-12.356 1.835-4.198-0.205-8.316-1.237-12.117-3.034-3.797-1.801-7.206-4.326-10.031-7.445-2.82-3.115-5.001-6.754-6.417-10.714l-49.839-139.601-49.882 139.601c-2.85 7.991-8.764 14.524-16.435 18.159s-16.469 4.075-24.465 1.22c-7.991-2.854-14.524-8.764-18.159-16.435s-4.075-16.469-1.22-24.465l80-224c2.219-6.217 6.306-11.597 11.703-15.403 5.393-3.806 11.836-5.845 18.436-5.845 6.605 0 13.043 2.039 18.441 5.845s9.485 9.186 11.699 15.403l80 224c2.85 7.987 2.411 16.781-1.216 24.448-3.631 7.663-10.155 13.577-18.142 16.431zM864 576v-96c0-8.486-3.371-16.627-9.374-22.626-5.999-6.003-14.14-9.374-22.626-9.374s-16.627 3.371-22.626 9.374c-6.003 5.999-9.374 14.14-9.374 22.626v64h-192c-8.486 0-16.627 3.372-22.626 9.373-6.003 6.001-9.374 14.141-9.374 22.627v192h-352v-288c0-8.486-3.372-16.627-9.373-22.626-6.001-6.003-14.141-9.374-22.627-9.374s-16.626 3.371-22.627 9.374c-6.001 5.999-9.373 14.14-9.373 22.626v288c0 16.974 6.743 33.253 18.745 45.255s28.281 18.745 45.255 18.745h384c4.203 0.003 8.367-0.822 12.25-2.428 3.887-1.606 7.415-3.962 10.389-6.932l224-224c2.974-2.974 5.329-6.505 6.933-10.389s2.432-8.048 2.428-12.251zM754.761 608l-114.761 114.76v-114.76h114.761z" />
<glyph unicode="&#xe940;" glyph-name="arrow-up" d="M512 832l-320-320 45.12-45.12 242.88 242.56v-645.44h64v645.44l242.88-242.56 45.12 45.12-320 320z" />
<glyph unicode="&#xe941;" glyph-name="folder" d="M878.080 512h-636.16l-96-384h636.16l96 384zM832 576v64h-346.24l-128.256 128h-229.504v-448l57.92 231.744c1.728 6.926 5.721 13.075 11.345 17.47s12.557 6.784 19.695 6.786h615.040zM807.040 64h-711.040c-8.487 0-16.626 3.371-22.627 9.374-6.001 5.999-9.373 14.14-9.373 22.626v704c0 8.487 3.372 16.626 9.373 22.627s14.141 9.373 22.627 9.373h287.872l128.384-128h351.744c8.486 0 16.627-3.372 22.626-9.373 6.003-6.001 9.374-14.141 9.374-22.627v-96h23.040c4.86-0.001 9.655-1.11 14.025-3.242s8.196-5.231 11.187-9.062c2.991-3.831 5.073-8.293 6.080-13.047 1.011-4.755 0.926-9.677-0.252-14.393l-112-448c-1.728-6.925-5.722-13.077-11.345-17.472s-12.557-6.784-19.695-6.784v0z" />
<glyph unicode="&#xe942;" glyph-name="search" d="M928.009 77.244l-241.668 241.668c58.069 69.717 87.027 159.134 80.849 249.659-6.178 90.523-47.023 175.179-114.027 236.357-67.008 61.178-155.021 94.167-245.731 92.106s-177.134-39.015-241.292-103.173c-64.158-64.159-101.112-150.582-103.173-241.292s30.928-178.723 92.106-245.731c61.178-67.004 145.833-107.849 236.357-114.027 90.525-6.178 179.942 22.78 249.659 80.849l241.668-241.668 45.252 45.252zM128.008 543.992c0 56.961 16.891 112.643 48.537 160.004s76.625 84.275 129.25 106.073c52.625 21.798 110.533 27.501 166.397 16.389 55.868-11.113 107.183-38.542 147.46-78.819 40.282-40.277 67.708-91.594 78.822-147.461 11.11-55.866 5.41-113.774-16.388-166.399s-58.714-97.604-106.074-129.25c-47.364-31.646-103.044-48.538-160.005-48.538-76.356 0.085-149.561 30.455-203.553 84.446-53.992 53.995-84.362 127.198-84.447 203.555v0z" />
<glyph unicode="&#xe943;" glyph-name="out" d="M784.056 608v-128h-352.056v-64l350.92-0.773 1.137-127.227 176 160-176 160zM751.053 212.168c-49.147-63.15-116.797-109.373-193.49-132.209-76.699-22.83-158.612-21.13-234.296 4.864s-141.356 74.982-187.839 140.119c-46.483 65.137-71.456 143.171-71.428 223.193s25.056 158.038 71.585 223.143 112.236 114.047 187.938 139.987c75.702 25.94 157.616 27.582 234.296 4.697 76.682-22.885 144.297-69.155 193.398-132.343l-50.56-39.289c-40.914 52.652-97.254 91.206-161.152 110.275-63.892 19.069-132.147 17.701-195.226-3.914s-117.829-62.396-156.599-116.645c-38.771-54.248-59.624-119.255-59.648-185.934-0.024-66.677 20.785-131.701 59.517-185.973 38.733-54.277 93.454-95.099 156.517-116.756s131.317-23.076 195.223-4.050c63.908 19.026 120.279 57.539 161.229 110.162l50.534-39.327z" />
<glyph unicode="&#xe944;" glyph-name="schedule-rotative" d="M563.063 762.1v43.069h26.321c7.441 0 14.575 2.871 19.84 7.98 5.261 5.11 8.213 12.040 8.213 19.266v37.332c0 7.23-2.953 14.165-8.213 19.283-5.257 5.117-12.395 7.999-19.84 8.012h-154.726c-7.454 0-14.604-2.876-19.875-7.994s-8.232-12.061-8.232-19.3v-37.332c0-3.582 0.727-7.129 2.141-10.438s3.484-6.315 6.095-8.845c2.61-2.531 5.709-4.536 9.118-5.903s7.063-2.066 10.753-2.060h26.27v-43.069c-99.365-12.596-190.072-61.442-253.707-136.621s-95.43-171.058-88.931-268.172c6.499-97.118 50.805-188.19 123.924-254.737s169.574-103.582 269.782-103.582c100.207 0 196.663 37.035 269.781 103.582s117.427 157.619 123.925 254.737c6.498 97.114-25.297 192.993-88.93 268.172-63.637 75.179-154.342 124.024-253.709 136.621v0zM431.552 829.101v43.959h160.887v-43.959h-160.887zM483.179 805.169h57.634v-40.893c-9.519 0.692-19.093 1.137-28.817 1.137s-19.298-0.445-28.817-1.137v40.893zM511.996 33.050c-71.125 0-140.651 20.484-199.788 58.859s-105.23 92.919-132.448 156.736c-27.218 63.817-34.339 134.037-20.464 201.788 13.876 67.746 48.125 129.975 98.417 178.818s114.368 82.105 184.125 95.581c69.756 13.476 142.063 6.56 207.774-19.874s121.873-71.197 161.387-128.63c39.514-57.432 60.604-124.956 60.604-194.029 0-45.867-9.301-91.281-27.371-133.653-18.074-42.372-44.561-80.87-77.956-113.301-33.391-32.431-73.033-58.155-116.663-75.708s-90.394-26.586-137.617-26.586v0zM743.552 385.762h-215.266v242.293c-5.397 0.297-10.795 0.445-16.294 0.445-52.668 0-104.153-15.168-147.944-43.587s-77.922-68.809-98.074-116.066c-20.153-47.258-25.423-99.26-15.145-149.427s35.645-96.243 72.89-132.412c37.245-36.164 84.697-60.791 136.355-70.763s105.199-4.843 153.856 14.737c48.653 19.58 90.24 52.736 119.492 95.27s44.86 92.535 44.851 143.689c0 5.291 0 10.581-0.508 15.821h-34.214zM743.552 385.762h-215.266v242.293c-5.397 0.297-10.795 0.445-16.294 0.445-52.668 0-104.153-15.168-147.944-43.587s-77.922-68.809-98.074-116.066c-20.153-47.258-25.423-99.26-15.145-149.427s35.645-96.243 72.89-132.412c37.245-36.164 84.697-60.791 136.355-70.763s105.199-4.847 153.856 14.737c48.653 19.58 90.24 52.736 119.492 95.27s44.86 92.535 44.851 143.689c0 5.291 0 10.581-0.508 15.821h-34.214zM511.991 144.461c-60.181-0.043-118.028 22.613-161.34 63.194s-68.701 95.91-70.815 154.321c-2.113 58.411 19.215 115.337 59.487 158.767 40.272 43.433 96.337 69.977 156.373 74.035v-240.661h247.855c-4.126-56.913-30.31-110.195-73.28-149.099-42.97-38.908-99.533-60.548-158.281-60.557v0z" />
<glyph unicode="&#xe945;" glyph-name="schedule-flex" d="M512.666 762.662h-0.401c-80.93 0.474-158.729-32.375-216.289-91.325-56.96-59.311-89.062-139.496-89.348-223.165-0.286-83.674 31.267-164.092 87.819-223.821 28.070-29.201 61.495-52.292 98.308-67.908 37.318-15.718 77.236-23.74 117.518-23.625 40.047-0.026 79.706 8.149 116.689 24.064 36.988 15.915 70.571 39.249 98.82 68.659 28.254 29.414 50.611 64.324 65.792 102.724 15.177 38.4 22.882 79.531 22.66 121.024 0 169.704-138.121 313.167-301.568 313.373zM509.342 187.503c-32.806-0.418-65.365 5.909-95.796 18.62-30.429 12.706-58.123 31.543-81.478 55.42-23.686 25.007-42.345 54.639-54.896 87.172-12.551 32.538-18.744 67.332-18.22 102.366 0 141.603 112.998 256.827 251.521 256.896 33.323 0.479 66.402-5.919 97.318-18.819 30.912-12.901 59.042-32.047 82.743-56.322s42.505-53.196 55.313-85.076c12.809-31.881 19.366-66.083 19.29-100.613-0.073-34.534-6.78-68.706-19.725-100.527-12.949-31.817-31.876-60.651-55.684-84.817-23.808-24.162-52.015-43.179-82.987-55.932-30.967-12.757-64.081-18.999-97.399-18.368zM402.195 386.347c-4.604 0.021-9.060 1.69-12.611 4.727-3.552 3.034-5.979 7.253-6.872 11.93-0.892 4.681-0.194 9.536 1.976 13.747 2.17 4.207 5.679 7.505 9.93 9.335l100.367 42.91 79.765 142.911c2.641 4.749 7.002 8.215 12.109 9.636 5.111 1.421 10.56 0.68 15.142-2.060s7.927-7.255 9.301-12.55c1.37-5.296 0.653-10.939-1.988-15.688l-83.153-149.040c-2.18-3.994-5.602-7.104-9.707-8.815l-106.35-45.457c-2.498-1.105-5.195-1.647-7.91-1.587v0zM514.389 444.117c-2.27-0.107-4.51 0.589-6.345 1.98-1.835 1.387-3.157 3.388-3.746 5.662s-0.41 4.689 0.508 6.844c0.913 2.155 2.513 3.921 4.531 5.005l155.537 84.164c1.169 0.701 2.462 1.15 3.802 1.319 1.335 0.169 2.697 0.055 3.989-0.336 1.297-0.391 2.5-1.050 3.546-1.937 1.041-0.887 1.899-1.984 2.517-3.225 0.623-1.241 0.994-2.599 1.097-3.993 0.098-1.394-0.077-2.794-0.512-4.116-0.439-1.322-1.131-2.539-2.035-3.576s-2.005-1.873-3.23-2.458l-155.601-84.16c-1.254-0.691-2.637-1.092-4.058-1.173zM863.322 275.021c-32.363-71.266-84.019-131.255-148.681-172.659-64.666-41.408-139.546-62.447-215.539-60.565s-149.819 26.607-212.498 71.168c-62.679 44.561-111.509 107.038-140.549 179.827-1.009 2.462-2.481 4.693-4.329 6.558-1.848 1.869-4.037 3.341-6.439 4.322-2.423 1.041-5.021 1.579-7.644 1.579s-5.221-0.538-7.644-1.579c-4.882-2.103-8.759-6.127-10.778-11.187-2.019-5.065-2.016-10.752 0.010-15.812 32.426-81.293 87.248-150.886 157.619-200.090 70.371-49.207 153.172-75.836 238.064-76.574 84.89-0.734 168.107 24.461 239.262 72.439s127.091 116.617 160.823 197.338l-15.356 10.675-26.321-5.44zM959.996 240.252l-67.597 47.177c-0.563 0.358-1.207 0.55-1.865 0.555h-0.661l-30.976-6.891-48.853-10.948 109.205 169.566 40.747-199.458zM159.627 634.281c33.2 66.236 83.265 121.79 144.768 160.641s132.098 59.515 204.128 59.753c72.96 0.245 144.525-20.707 206.571-60.48 62.050-39.773 112.094-96.772 144.452-164.528 2.449-4.732 6.579-8.291 11.516-9.921 4.941-1.631 10.295-1.206 14.938 1.185 4.638 2.391 8.196 6.559 9.924 11.622 1.724 5.063 1.481 10.624-0.683 15.503-35.644 74.656-90.773 137.463-159.13 181.29s-147.204 66.918-227.588 66.653c-81.715-0.292-161.694-24.454-230.756-69.711s-124.408-109.777-159.683-186.152l14.889-11.089 26.654 5.234zM213.090 637.096l-114.526-165.71-34.564 200.698 45.797-34.436 2.725-1.997 2.726-2.066 15.221-10.951c0.367-0.283 0.788-0.484 1.233-0.591s0.909-0.116 1.359-0.029l23.197 4.339 4.121 0.826 4.055 0.758 48.655 9.16z" />
<glyph unicode="&#xe946;" glyph-name="edit" d="M785.673 886.402c15.296 6.336 31.693 9.598 48.247 9.598 16.559 0 32.956-3.261 48.252-9.598s29.197-15.624 40.905-27.332c11.708-11.708 20.996-25.608 27.332-40.905s9.6-31.693 9.6-48.251c0-16.558-3.264-32.953-9.6-48.251s-15.625-29.197-27.332-40.905l-277.372-277.371c-19.409-19.413-44.079-32.602-70.959-37.978-0.004 0 0 0 0 0l-128.252-25.668c-11.908-2.385-24.218 1.344-32.808 9.929s-12.319 20.898-9.94 32.806l25.621 128.247c5.393 26.882 18.628 51.597 38.025 70.973zM467.392 581.698l277.372 277.373c11.708 11.708 25.609 20.995 40.909 27.332zM833.92 823.351c-7.014 0-13.965-1.382-20.45-4.068-6.481-2.685-12.373-6.621-17.335-11.584l-52.454-52.457 75.588-75.553 52.437 52.439c4.962 4.962 8.9 10.853 11.584 17.336 2.688 6.483 4.070 13.432 4.070 20.449s-1.382 13.967-4.070 20.449c-2.684 6.484-6.622 12.374-11.584 17.336s-10.85 8.898-17.335 11.584c-6.481 2.685-13.431 4.068-20.45 4.068zM767.898 628.319l-75.588 75.553-173.547-173.543c-9.254-9.242-15.582-21.035-18.159-33.856 0-0.004 0 0.004 0 0l-14.942-74.803 74.825 14.976c12.834 2.569 24.589 8.849 33.847 18.112l173.564 173.561zM197.189 726.476c-16.056 0-31.455-6.378-42.809-17.732s-17.732-26.752-17.732-42.809v-532.756c0-16.055 6.379-31.454 17.732-42.807s26.752-17.732 42.809-17.732h532.756c16.055 0 31.454 6.379 42.807 17.732s17.732 26.752 17.732 42.807v181.619h72.649v-181.619c0-35.324-14.033-69.201-39.010-94.178-24.977-24.981-58.854-39.010-94.178-39.010h-532.756c-35.324 0-69.201 14.029-94.179 39.010-24.978 24.977-39.010 58.854-39.010 94.178v532.756c0 35.324 14.032 69.201 39.010 94.179s58.855 39.010 94.179 39.010h181.622v-72.649h-181.622z" />
<glyph unicode="&#xe947;" glyph-name="dot-horizontal" d="M256 384c35.346 0 64 28.655 64 64s-28.654 64-64 64c-35.346 0-64-28.655-64-64s28.654-64 64-64zM512 384c35.345 0 64 28.655 64 64s-28.655 64-64 64c-35.345 0-64-28.655-64-64s28.655-64 64-64zM768 384c35.345 0 64 28.655 64 64s-28.655 64-64 64c-35.345 0-64-28.655-64-64s28.655-64 64-64z" />
<glyph unicode="&#xe948;" glyph-name="arrow-left" d="M448 149.333l45.12 45.12-242.56 242.88h645.44v64h-645.44l242.56 242.88-45.12 45.12-320-320 320-320z" />
<glyph unicode="&#xe949;" glyph-name="down" d="M512 255.991l-320 320 44.8 44.8 275.2-275.2 275.2 275.2 44.8-44.8-320-320z" />
<glyph unicode="&#xe94a;" glyph-name="list-menu" d="M896 714.667h-576v-64h576v64zM896 245.333h-576v-64h576v64zM896 480h-576v-64h576v64zM192 480h-64v-64h64v64zM192 714.667h-64v-64h64v64zM192 245.333h-64v-64h64v64z" />
<glyph unicode="&#xe94b;" glyph-name="right" d="M704.009 448l-320-320-44.8 44.8 275.2 275.2-275.2 275.2 44.8 44.8 320-320z" />
<glyph unicode="&#xe94c;" glyph-name="arrow-right" d="M576 768l-45.76-44.576 242.56-243.424h-644.8v-64h644.8l-242.56-242.334 45.76-45.666 320 320-320 320z" />
<glyph unicode="&#xe94d;" glyph-name="close" d="M810.667 694.4l-52.267 52.267-246.4-246.4-246.4 246.4-52.267-52.267 246.4-246.4-246.4-246.4 52.267-52.267 246.4 246.4 246.4-246.4 52.267 52.267-246.4 246.4 246.4 246.4z" />
<glyph unicode="&#xe94e;" glyph-name="sort" d="M522.667 64.004l-224 224 45.12 45.12 178.88-178.56 178.88 178.56 45.12-45.12-224-224zM522.667 832l224-224-45.12-45.12-178.88 178.56-178.88-178.56-45.12 45.12 224 224z" />
<glyph unicode="&#xe94f;" glyph-name="help" d="M520.307 358.481c-9.532-0.478-18.714-3.75-26.406-9.408-7.697-5.662-13.572-13.457-16.892-22.43-3.324-8.973-3.947-18.726-1.796-28.049 2.146-9.327 6.976-17.813 13.888-24.414 6.908-6.601 15.599-11.025 24.99-12.723s19.076-0.593 27.849 3.17c8.772 3.763 16.256 10.027 21.517 18.010 5.261 7.987 8.068 17.344 8.081 26.914 0.009 6.635-1.327 13.205-3.934 19.307-2.603 6.101-6.413 11.61-11.209 16.188-4.791 4.574-10.462 8.128-16.666 10.436-6.204 2.313-12.813 3.332-19.422 2.999v0zM523.725 664.25c-81.476 0-118.558-45.015-118.558-75.352 0.184-4.522 1.273-8.961 3.202-13.053s4.659-7.753 8.027-10.766c3.368-3.013 7.306-5.315 11.581-6.771 4.271-1.456 8.794-2.035 13.295-1.704 32.201 0 19.029 43.548 80.503 43.548 30.251 0 54.157-12.722 54.157-38.655s-33.664-48.93-53.67-63.607c-13.077-9.963-23.552-22.959-30.519-37.871-6.972-14.916-10.227-31.305-9.489-47.757 0-29.359 8.294-38.165 33.178-38.165s35.132 12.723 35.132 23.488c-2.15 13.777-0.081 27.887 5.926 40.469 6.012 12.578 15.68 23.031 27.738 29.986 18.176 11.098 33.655 26.129 45.303 43.989s19.174 38.104 22.025 59.254c1.463 52.844-49.276 92.966-127.829 92.966zM523.729 874.667c-111.372-1.548-217.586-47.34-295.334-127.328s-120.681-187.642-119.378-299.338c4.997-61.764 17.952-122.615 38.544-181.039l-60.499-189.359c-1.677-5.013-1.972-10.385-0.856-15.552 1.117-5.171 3.604-9.937 7.199-13.807 3.665-3.772 8.247-6.524 13.294-7.983s10.386-1.574 15.492-0.333l173.692 45.504c69.434-40.077 147.757-62.114 227.847-64.098 111.334 1.677 217.472 47.509 295.194 127.471 77.722 79.957 120.695 187.537 119.522 299.196 1.173 111.658-41.801 219.237-119.522 299.197s-183.859 125.793-295.194 127.469zM523.729 80.047c-73.058 2.167-144.321 23.236-206.867 61.163-4.748 3.23-10.363 4.937-16.101 4.894-2.417 0.474-4.902 0.474-7.319 0l-134.66-34.739 48.79 146.79c1.94 6.042 1.94 12.548 0 18.59-19.791 55.287-32.736 112.802-38.544 171.255-1.308 95.875 35.255 188.375 101.71 257.312s157.4 108.71 252.991 110.639c95.846-1.546 187.17-41.151 253.939-110.129s103.531-161.697 102.229-257.822c1.301-96.124-35.46-188.843-102.229-257.822s-158.093-108.582-253.939-110.131z" />
<glyph unicode="&#xe950;" glyph-name="up" d="M512 640l320-320-44.8-44.8-275.2 275.2-275.2-275.2-44.8 44.8 320 320z" />
</font>
</defs>
</svg>
